(Classical) Maxwell/Pancelbel - The Elegance of Pachelbel - 1998, FLAC (image+.cue) lossless

Страницы:  1

Ответить
Автор
Сообщение

gio2k

Стаж: 4 года 2 месяца

Сообщений: 18

gio2k · 25-Июн-18 17:45 (24 дня назад, ред. 27-Июн-18 16:08)

Michael Maxwell - The Elegance of Pachelbel
Жанр: Classical
Страна-производитель диска: Canada
Год издания диска: 1998
Издатель (лейбл): Avalon Music
Номер по каталогу: 674 - 18055-2
Дата записи: 2017
Аудиокодек: FLAC
Тип рипа: image+.cue
Битрейт аудио: lossless
Продолжительность: 54:20:00
Источник: собственный рип
Треклист:
1. Serenade
2. Pavane
3. Arabesque
4. Elegy
5. Nocturne
6. Fantasia
7. Canon - Finale
Исполнители:
Michael Maxwell
Snouzer Moriarity - piano, Snouzer Moriarity - keyboards, John Ebata - piano, Jeff Goodspeed - woodwinds, Maddie Willis
Лог создания рипа
X Lossless Decoder version 20170729 (150.3)
XLD extraction logfile from 2018-06-25 15:19:15 +0200
Michael Maxwell / The Elegance of Pachelbel
Used drive : PIONEER BD-RW BDR-209M (revision 8.11)
Media type : Pressed CD
Ripper mode : CDParanoia III 10.2
Disable audio cache : OK for the drive with a cache less than 2750KiB
Make use of C2 pointers : YES
Read offset correction : 667
Max retry count : 20
Gap status : Analyzed, Appended
TOC of the extracted CD
Track | Start | Length | Start sector | End sector
---------------------------------------------------------
1 | 00:00:00 | 08:07:57 | 0 | 36581
2 | 08:07:57 | 07:48:33 | 36582 | 71714
3 | 15:56:15 | 05:08:45 | 71715 | 94859
4 | 21:04:60 | 07:15:07 | 94860 | 127491
5 | 28:19:67 | 08:42:38 | 127492 | 166679
6 | 37:02:30 | 05:53:57 | 166680 | 193211
7 | 42:56:12 | 11:24:55 | 193212 | 244566
List of alternate offset correction values
# | Absolute | Relative | Confidence
------------------------------------------
1 | 661 | -6 | 3
AccurateRip Summary (DiscID: 000e44c4-0055aae6-650cbc07)
Track 01 : OK (v2, confidence 3/3, with different offset)
Track 02 : OK (v2, confidence 3/3, with different offset)
Track 03 : OK (v2, confidence 3/3, with different offset)
Track 04 : OK (v2, confidence 3/3, with different offset)
Track 05 : OK (v2, confidence 3/3, with different offset)
Track 06 : OK (v2, confidence 3/3, with different offset)
Track 07 : OK (v2, confidence 3/3, with different offset)
->All tracks accurately ripped.
All Tracks
Filename : /Users/gio2k/Desktop/The Elegance of Pachelbel.flac
Album gain : -4.23 dB
Peak : 0.988831
CRC32 hash : A41894A3
CRC32 hash (skip zero) : 0E8D71F6
Statistics
Read error : 0
Skipped (treated as error) : 0
Edge jitter error (maybe fixed) : 0
Atom jitter error (maybe fixed) : 0
Drift error (maybe fixed) : 0
Dropped bytes error (maybe fixed) : 0
Duplicated bytes error (maybe fixed) : 0
Inconsistency in error sectors : 0
Track 01
Pre-gap length : 00:02:00
Track gain : -3.92 dB
Peak : 0.988098
CRC32 hash : 04C1A6AC
CRC32 hash (skip zero) : CB943B1A
AccurateRip v1 signature : 9800B64A
AccurateRip v2 signature : 7679CCBC (DBAA83F1 w/correction)
->Accurately ripped with different offset (v2, confidence 3/3, offset -6)
Statistics
Read error : 0
Skipped (treated as error) : 0
Edge jitter error (maybe fixed) : 0
Atom jitter error (maybe fixed) : 0
Drift error (maybe fixed) : 0
Dropped bytes error (maybe fixed) : 0
Duplicated bytes error (maybe fixed) : 0
Inconsistency in error sectors : 0
Track 02
Pre-gap length : 00:03:41
Track gain : -4.52 dB
Peak : 0.977509
CRC32 hash : 93CC0C57
CRC32 hash (skip zero) : 1046CD19
AccurateRip v1 signature : F430A131
AccurateRip v2 signature : 09103E0E (9F7BA81D w/correction)
->Accurately ripped with different offset (v2, confidence 3/3, offset -6)
Statistics
Read error : 0
Skipped (treated as error) : 0
Edge jitter error (maybe fixed) : 0
Atom jitter error (maybe fixed) : 0
Drift error (maybe fixed) : 0
Dropped bytes error (maybe fixed) : 0
Duplicated bytes error (maybe fixed) : 0
Inconsistency in error sectors : 0
Track 03
Pre-gap length : 00:03:42
Track gain : -4.20 dB
Peak : 0.976624
CRC32 hash : 5791CD08
CRC32 hash (skip zero) : C1625365
AccurateRip v1 signature : B1B27E63
AccurateRip v2 signature : 1B46BAC4 (4CD56FC9 w/correction)
->Accurately ripped with different offset (v2, confidence 3/3, offset -6)
Statistics
Read error : 0
Skipped (treated as error) : 0
Edge jitter error (maybe fixed) : 0
Atom jitter error (maybe fixed) : 0
Drift error (maybe fixed) : 0
Dropped bytes error (maybe fixed) : 0
Duplicated bytes error (maybe fixed) : 0
Inconsistency in error sectors : 0
Track 04
Pre-gap length : 00:02:43
Track gain : -3.56 dB
Peak : 0.977081
CRC32 hash : D1212387
CRC32 hash (skip zero) : F40897F7
AccurateRip v1 signature : A1B9A5BC
AccurateRip v2 signature : AAD6C93E (CF40EB9A w/correction)
->Accurately ripped with different offset (v2, confidence 3/3, offset -6)
Statistics
Read error : 0
Skipped (treated as error) : 0
Edge jitter error (maybe fixed) : 0
Atom jitter error (maybe fixed) : 0
Drift error (maybe fixed) : 0
Dropped bytes error (maybe fixed) : 0
Duplicated bytes error (maybe fixed) : 0
Inconsistency in error sectors : 0
Track 05
Pre-gap length : 00:03:42
Track gain : -4.25 dB
Peak : 0.988831
CRC32 hash : 63A4B464
CRC32 hash (skip zero) : C76A690B
AccurateRip v1 signature : AFAC24AA
AccurateRip v2 signature : 39F371D5 (3300D3A9 w/correction)
->Accurately ripped with different offset (v2, confidence 3/3, offset -6)
Statistics
Read error : 0
Skipped (treated as error) : 0
Edge jitter error (maybe fixed) : 0
Atom jitter error (maybe fixed) : 0
Drift error (maybe fixed) : 0
Dropped bytes error (maybe fixed) : 0
Duplicated bytes error (maybe fixed) : 0
Inconsistency in error sectors : 0
Track 06
Pre-gap length : 00:03:43
Track gain : -3.79 dB
Peak : 0.966217
CRC32 hash : A66B83C0
CRC32 hash (skip zero) : 4DE3C4A8
AccurateRip v1 signature : C16DBA13
AccurateRip v2 signature : CFB8388F (443615E4 w/correction)
->Accurately ripped with different offset (v2, confidence 3/3, offset -6)
Statistics
Read error : 0
Skipped (treated as error) : 0
Edge jitter error (maybe fixed) : 0
Atom jitter error (maybe fixed) : 0
Drift error (maybe fixed) : 0
Dropped bytes error (maybe fixed) : 0
Duplicated bytes error (maybe fixed) : 0
Inconsistency in error sectors : 0
Track 07
Pre-gap length : 00:03:42
Track gain : -4.56 dB
Peak : 0.976685
CRC32 hash : D63DDDCC
CRC32 hash (skip zero) : 50D1766E
AccurateRip v1 signature : 1713BC21
AccurateRip v2 signature : 71FE11D8 (01151B62 w/correction)
->Accurately ripped with different offset (v2, confidence 3/3, offset -6)
Statistics
Read error : 0
Skipped (treated as error) : 0
Edge jitter error (maybe fixed) : 0
Atom jitter error (maybe fixed) : 0
Drift error (maybe fixed) : 0
Dropped bytes error (maybe fixed) : 0
Duplicated bytes error (maybe fixed) : 0
Inconsistency in error sectors : 0
No errors occurred
End of status report
Содержание индексной карты (.CUE)
TITLE "The Elegance of Pachelbel"
PERFORMER "Michael Maxwell"
REM GENRE "Classical"
REM DATE "1998"
REM DISCNUMBER 1
REM TOTALDISCS 1
REM DISCID 650CBC07
REM REPLAYGAIN_ALBUM_GAIN -4.23 dB
REM REPLAYGAIN_ALBUM_PEAK 0.988831
FILE "The Elegance of Pachelbel.flac" WAVE
TRACK 01 AUDIO
TITLE "Pachelbel: Serenade"
SONGWRITER "Johann Pachelbel"
REM REPLAYGAIN_TRACK_GAIN -3.92 dB
REM REPLAYGAIN_TRACK_PEAK 0.988098
INDEX 01 00:00:00
TRACK 02 AUDIO
TITLE "Pachelbel: Pavan"
SONGWRITER "Johann Pachelbel"
REM REPLAYGAIN_TRACK_GAIN -4.52 dB
REM REPLAYGAIN_TRACK_PEAK 0.977509
INDEX 00 08:04:16
INDEX 01 08:07:57
TRACK 03 AUDIO
TITLE "Pachelbel: Arabesque"
SONGWRITER "Johann Pachelbel"
REM REPLAYGAIN_TRACK_GAIN -4.20 dB
REM REPLAYGAIN_TRACK_PEAK 0.976624
INDEX 00 15:52:48
INDEX 01 15:56:15
TRACK 04 AUDIO
TITLE "Pachelbel: Elegy"
SONGWRITER "Johann Pachelbel"
REM REPLAYGAIN_TRACK_GAIN -3.56 dB
REM REPLAYGAIN_TRACK_PEAK 0.977081
INDEX 00 21:02:17
INDEX 01 21:04:60
TRACK 05 AUDIO
TITLE "Pachelbel: Nocturne"
SONGWRITER "Johann Pachelbel"
REM REPLAYGAIN_TRACK_GAIN -4.25 dB
REM REPLAYGAIN_TRACK_PEAK 0.988831
INDEX 00 28:16:25
INDEX 01 28:19:67
TRACK 06 AUDIO
TITLE "Pachelbel: Fantasia"
SONGWRITER "Johann Pachelbel"
REM REPLAYGAIN_TRACK_GAIN -3.79 dB
REM REPLAYGAIN_TRACK_PEAK 0.966217
INDEX 00 36:58:62
INDEX 01 37:02:30
TRACK 07 AUDIO
TITLE "Pachelbel: Canon - Finale"
SONGWRITER "Johann Pachelbel"
REM REPLAYGAIN_TRACK_GAIN -4.56 dB
REM REPLAYGAIN_TRACK_PEAK 0.976685
INDEX 00 42:52:45
INDEX 01 42:56:12
foobar2000 1.3.19 / Dynamic Range Meter 1.1.1
log date: 2018-06-27 15:01:44
--------------------------------------------------------------------------------
Analyzed: Michael Maxwell / The Elegance of Pachelbel
--------------------------------------------------------------------------------
DR Peak RMS Duration Track
--------------------------------------------------------------------------------
DR11 -0.10 dB -13.67 dB 8:08 01-Pachelbel: Serenade
DR10 -0.20 dB -13.62 dB 7:48 02-Pachelbel: Pavan
DR10 -0.21 dB -13.50 dB 5:09 03-Pachelbel: Arabesque
DR10 -0.20 dB -14.21 dB 7:15 04-Pachelbel: Elegy
DR11 -0.10 dB -14.00 dB 8:43 05-Pachelbel: Nocturne
DR11 -0.30 dB -14.00 dB 5:54 06-Pachelbel: Fantasia
DR11 -0.20 dB -13.33 dB 11:25 07-Pachelbel: Canon - Finale
--------------------------------------------------------------------------------
Number of tracks: 7
Official DR value: DR11
Samplerate: 44100 Hz
Channels: 2
Bits per sample: 16
Bitrate: 735 kbps
Codec: FLAC
================================================================================
Доп. информация: In seven distinctly different and peaceful arrangements, Michael Maxwell showcases Pachelbel's Canon. These soulful interpretations will draw listeners back time and again. Instrumentation includes violin, viola, cello, woodwinds, guitar, piano & keyboards.
Lovers of Pachelbel's Canon won't be dissappointed. Seven variations of classical musics greatest hit pay tribute to the elegance and serenity of the original. A sequel is a must.
Download
Для скачивания .torrent файлов необходима регистрация
Сайт не распространяет и не хранит электронные версии произведений, а лишь предоставляет доступ к создаваемому пользователями каталогу ссылок на торрент-файлы, которые содержат только списки хеш-сумм
[Профиль]  [ЛС] 
 
Ответить
Loading...
Error