(Classical opera) Cavalli - Sospiri d'Amore [Opera duets and arias. Venice, 1644-1666] (Giulia Semenzato, Raffaele Pe / La Venexiana, Claudio Cavina) - 2016, FLAC (image+.cue) lossless

Страницы:  1

Ответить
Автор
Сообщение

Caterina Sforza

Top Seed 06* 1280r

Стаж: 11 лет 4 месяца

Сообщений: 3616

Caterina Sforza · 24-Июн-18 21:43 (28 дней назад, ред. 24-Июн-18 21:45)

Francesco Cavalli - Sospiri d'Amore
Жанр: Classical opera
Страна-производитель диска: Made in the EU
Год издания диска: 2016
Издатель (лейбл): Glossa
Номер по каталогу: GCD 920940
Дата записи: 2015
Аудиокодек: FLAC
Тип рипа: image+.cue
Битрейт аудио: lossless
Продолжительность: 01:00:02
Источник: релизер
сайт-источник/ник/другое: Bodtje, подарок; Caterina Sforza - работа с cue, доп. сканы
Наличие сканов в содержимом раздачи: да
Треклист
01 O luci belle (Duetto. Eritrea, 1652) Libretto: Giovanni Faustini 4:04
02 Qui cadè al tuo piè (Duetto. Orimonte, 1650) Libretto: Nicolò Minato 3:39
03 Né meste più (Duetto. La Veremonda, 1652) Libretto: Giulio Strozzi 5:23
04 Lassa, che fò (Soprano. Statira, 1656) Libretto: Giovanni Francesco Busenello 4:36
05 Corone ed honori (Alto. Il Ciro, 1653) Libretto: Anon. 3:02
06 Vanne intrepido o mio bene (Soprano. Statira, 1656) Libretto: Giovanni Francesco Busenello 3:36
07 L’aspetto feroce (Duetto. Muzio Scevola, 1665) Libretto: Nicolò Minato 3:03
08 D’Amor non si quereli (Duetto. Ormindo, 1644) Libretto: Giovanni Faustini 3:02
09 Io misero fui Rege (Alto. Scipione Affricano, 1664) Libretto: Nicolò Minato 2:31
10 Hor che l’aurora (Dialogo. Egisto, 1643) Libretto: Giovanni Faustini 10:25
11 Io chiudo nel core (Duetto. Il rapimento di Elena, 1659) Libretto: Nicolò Minato 6:35
12 Alpi gelate (Soprano. Pompeo Magno, 1666) Libretto: Nicolò Minato 3:40
13 Sì, sì, che questa notte (Duetto. Ormindo, 1644) Libretto: Giovanni Faustini 6:28
Исполнители
Francesco Cavalli (1602-1676)
Sospiri d’amore
Opera duets and arias. Venice, 1644-1666
O luci belle (Eritrea)
Qui cadè al tuo piè (Orimonte)
Né meste più (Veremonda)
Lassa, che fò (Statira)
Corone ed honori (Ciro)
Vanne intrepido o mio bene (Statira)
L’aspetto feroce (Muzio Scevola)
D’Amor non si quereli (Ormindo)
Io misero fui Rege (Scipione Affricano)
Hor che l’aurora (Egisto)
Io chiudo nel core (Elena)
Alpi gelate (Pompeo Magno)
Sì, sì, che questa notte (Ormindo)
Giulia Semenzato, soprano
Raffaele Pe, alto
La Venexiana
Efix Puleo, violin
Daniela Godio, violin
Luca Moretti, viola
Antonio Papetti, violoncello
Alberto Lo Gatto, violone
Chiara Granata, triple harp
Gabriele Palomba, theorbo
Diego Cantalupi, theorbo
Luca Oberti, harpsichord
Claudio Cavina, direction
Recorded in Lodi (Teatro alle Vigne), Italy, in December 2015
Release Date: May 27, 2016
Лог создания рипа
Exact Audio Copy V1.3 from 2. September 2016
EAC extraction logfile from 24. June 2018, 15:27
La Venexiana / Francesco Cavalli: Sospiri d'amore
Used drive : TSSTcorpDVDWBD SE-406AB Adapter: 1 ID: 2
Read mode : Secure
Utilize accurate stream : Yes
Defeat audio cache : Yes
Make use of C2 pointers : No
Read offset correction : 6
Overread into Lead-In and Lead-Out : No
Fill up missing offset samples with silence : Yes
Delete leading and trailing silent blocks : No
Null samples used in CRC calculations : Yes
Used interface : Native Win32 interface for Win NT & 2000
Used output format : User Defined Encoder
Selected bitrate : 1024 kBit/s
Quality : High
Add ID3 tag : No
Command line compressor : C:\Program Files (x86)\Exact Audio Copy\FLAC\FLAC.EXE
Additional command line options : -8 -e -p -V -T "ARTIST=%artist%" -T "TITLE=%title%" -T "ALBUM=%albumtitle%" -T "DATE=%year%" -T "TRACKNUMBER=%tracknr%" -T "GENRE=%genre%" -T "PERFORMER=%albuminterpret%" -T "COMPOSER=%composer%" %haslyrics%--tag-from-file=LYRICS="%lyricsfile%"%haslyrics% -T "ALBUMARTIST=%albumartist%" -T "DISCNUMBER=%cdnumber%" -T "TOTALDISCS=%totalcds%" -T "TOTALTRACKS=%numtracks%" -T "COMMENT=%comment%" %source% -o %dest%
TOC of the extracted CD
Track | Start | Length | Start sector | End sector
---------------------------------------------------------
1 | 0:00.00 | 4:04.63 | 0 | 18362
2 | 4:04.63 | 3:39.00 | 18363 | 34787
3 | 7:43.63 | 5:23.00 | 34788 | 59012
4 | 13:06.63 | 4:36.00 | 59013 | 79712
5 | 17:42.63 | 3:02.00 | 79713 | 93362
6 | 20:44.63 | 3:36.00 | 93363 | 109562
7 | 24:20.63 | 3:03.00 | 109563 | 123287
8 | 27:23.63 | 3:02.00 | 123288 | 136937
9 | 30:25.63 | 2:31.00 | 136938 | 148262
10 | 32:56.63 | 10:25.00 | 148263 | 195137
11 | 43:21.63 | 6:35.00 | 195138 | 224762
12 | 49:56.63 | 3:40.00 | 224763 | 241262
13 | 53:36.63 | 6:28.12 | 241263 | 270374
Range status and errors
Selected range
Filename K:\Rips\Cavalli - Sospiri d'Amore - La Venexiana\La Venexiana - Francesco Cavalli- Sospiri d'amore.wav
Peak level 99.8 %
Extraction speed 3.1 X
Range quality 100.0 %
Test CRC BA1F7CF6
Copy CRC BA1F7CF6
Copy OK
No errors occurred
AccurateRip summary
Track 1 accurately ripped (confidence 4) [CC180A7A] (AR v2)
Track 2 accurately ripped (confidence 4) [2CB002B5] (AR v2)
Track 3 accurately ripped (confidence 4) [0BFADF24] (AR v2)
Track 4 accurately ripped (confidence 4) [DE5AB2A4] (AR v2)
Track 5 accurately ripped (confidence 4) [6381EBC5] (AR v2)
Track 6 accurately ripped (confidence 4) [1F96E25B] (AR v2)
Track 7 accurately ripped (confidence 4) [3F815C11] (AR v2)
Track 8 accurately ripped (confidence 4) [C805DDF6] (AR v2)
Track 9 accurately ripped (confidence 4) [C35715AF] (AR v2)
Track 10 accurately ripped (confidence 4) [D16E78FC] (AR v2)
Track 11 accurately ripped (confidence 4) [BD51B36D] (AR v2)
Track 12 accurately ripped (confidence 4) [B7F9AA38] (AR v2)
Track 13 accurately ripped (confidence 4) [C73F367D] (AR v2)
All tracks accurately ripped
End of status report
---- CUETools DB Plugin V2.1.6
[CTDB TOCID: HInE4E1w6D1Or05dUIl2h.fmEKU-] found
Submit result: HInE4E1w6D1Or05dUIl2h.fmEKU- has been confirmed
Track | CTDB Status
1 | (7/7) Accurately ripped
2 | (7/7) Accurately ripped
3 | (7/7) Accurately ripped
4 | (7/7) Accurately ripped
5 | (7/7) Accurately ripped
6 | (7/7) Accurately ripped
7 | (7/7) Accurately ripped
8 | (7/7) Accurately ripped
9 | (7/7) Accurately ripped
10 | (7/7) Accurately ripped
11 | (7/7) Accurately ripped
12 | (7/7) Accurately ripped
13 | (7/7) Accurately ripped
==== Log checksum 3A4FCB77D317A1790817BF1ADFE2B0BD0C0052DFB4DC295FDAB2407D7B8E049B ====
Содержание индексной карты (.CUE)
REM GENRE Vocal
REM DATE 2016
REM DISCID C90E150D
REM COMMENT "ExactAudioCopy v1.3"
PERFORMER "Giulia Semenzato, soprano; Raffaele Pe, alto / La Venexiana - Efix Puleo, violin; Daniela Godio, violin; Luca Moretti, viola; Antonio Papetti, violoncello Alberto Lo Gatto, violone; Chiara Granata, triple harp Gabriele Palomba, theorbo; Diego Cantalupi, theorbo Luca Oberti, harpsichord; Claudio Cavina, direction"
TITLE "Francesco Cavalli: Sospiri d'amore"
REM COMPOSER "Francesco Cavalli (1602-1676)"
FILE "La Venexiana - Francesco Cavalli - Sospiri d'amore.flac" WAVE
TRACK 01 AUDIO
TITLE "O luci belle (Duetto. Eritrea, 1652) Libretto: Giovanni Faustini"
PERFORMER "La Venexiana & Giulia Semenzato, Raffaele Pe"
REM COMPOSER "Francesco Cavalli"
FLAGS DCP
INDEX 01 00:00:00
TRACK 02 AUDIO
TITLE "Qui cadè al tuo piè (Duetto. Orimonte, 1650) Libretto: Nicolò Minato"
PERFORMER "La Venexiana & Giulia Semenzato, Raffaele Pe"
REM COMPOSER "Francesco Cavalli"
FLAGS DCP
INDEX 01 04:04:63
TRACK 03 AUDIO
TITLE "Né meste più (Duetto. La Veremonda, 1652) Libretto: Giulio Strozzi"
PERFORMER "La Venexiana & Giulia Semenzato, Raffaele Pe"
REM COMPOSER "Francesco Cavalli"
FLAGS DCP
INDEX 01 07:43:63
TRACK 04 AUDIO
TITLE "Lassa, che fò (Soprano. Statira, 1656) Libretto: Giovanni Francesco Busenello"
PERFORMER "La Venexiana & Giulia Semenzato"
REM COMPOSER "Francesco Cavalli"
FLAGS DCP
INDEX 01 13:06:63
TRACK 05 AUDIO
TITLE "Corone ed honori (Alto. Il Ciro, 1653) Libretto: Anon."
PERFORMER "La Venexiana & Raffaele Pe"
REM COMPOSER "Francesco Cavalli"
FLAGS DCP
INDEX 01 17:42:63
TRACK 06 AUDIO
TITLE "Vanne intrepido o mio bene (Soprano. Statira, 1656) Libretto: Giovanni Francesco Busenello"
PERFORMER "La Venexiana & Giulia Semenzato"
REM COMPOSER "Francesco Cavalli"
FLAGS DCP
INDEX 01 20:44:63
TRACK 07 AUDIO
TITLE "L’aspetto feroce (Duetto. Muzio Scevola, 1665) Libretto: Nicolò Minato"
PERFORMER "La Venexiana & Giulia Semenzato, Raffaele Pe"
REM COMPOSER "Francesco Cavalli"
FLAGS DCP
INDEX 01 24:20:63
TRACK 08 AUDIO
TITLE "D’Amor non si quereli (Duetto. Ormindo, 1644) Libretto: Giovanni Faustini"
PERFORMER "La Venexiana & Giulia Semenzato, Raffaele Pe"
REM COMPOSER "Francesco Cavalli"
FLAGS DCP
INDEX 01 27:23:63
TRACK 09 AUDIO
TITLE "Io misero fui Rege (Alto. Scipione Affricano, 1664) Libretto: Nicolò Minato"
PERFORMER "La Venexiana & Raffaele Pe"
REM COMPOSER "Francesco Cavalli"
FLAGS DCP
INDEX 01 30:25:63
TRACK 10 AUDIO
TITLE "Hor che l’aurora (Dialogo. Egisto, 1643) Libretto: Giovanni Faustini"
PERFORMER "La Venexiana & Giulia Semenzato, Raffaele Pe"
REM COMPOSER "Francesco Cavalli"
FLAGS DCP
INDEX 01 32:56:63
TRACK 11 AUDIO
TITLE "Io chiudo nel core (Duetto. Il rapimento di Elena, 1659) Libretto: Nicolò Minato"
PERFORMER "La Venexiana & Giulia Semenzato, Raffaele Pe"
REM COMPOSER "Francesco Cavalli"
FLAGS DCP
INDEX 01 43:21:63
TRACK 12 AUDIO
TITLE "Alpi gelate (Soprano. Pompeo Magno, 1666) Libretto: Nicolò Minato"
PERFORMER "La Venexiana & Giulia Semenzato"
REM COMPOSER "Francesco Cavalli"
FLAGS DCP
INDEX 01 49:56:63
TRACK 13 AUDIO
TITLE "Sì, sì, che questa notte (Duetto. Ormindo, 1644) Libretto: Giovanni Faustini"
PERFORMER "La Venexiana & Giulia Semenzato, Raffaele Pe"
REM COMPOSER "Francesco Cavalli"
FLAGS DCP
INDEX 01 53:36:63
About this CD
Two of the brightest singing talents to have emerged from Italy in recent years, Giulia Semenzato and Raffaele Pe, join forces for Sospiri d’amore, a dazzling celebration of operatic arias and duets by that Baroque master of amorous emotions, Francesco Cavalli. Soprano and countertenor are supported by a modern master of Italian Baroque style in Claudio Cavina, who directs La Venexiana (Cavina has also led the Glossa recording of Cavalli’s 1656 opera Artemisia).
Working in Venice with some of the best Italian librettists around in the mid-seventeenth century, Cavalli mined rich emotional seams concerning love in his operas – from tragedy to comedy, from profundity to frivolousness, through to sensuality and vivacity – conjuring up a stream of productions which enjoyed great artistic and financial success; his influence travelled far and wide, and even just in the immediate period of the Baroque this included Rameau, Lully and Handel and Purcell.
With five full-scale duets amongst the solo arias, ariosos and recitar cantando, this new Glossa recording gloriously shows off the talents of two artists who have been gathering important stage experience in the operas of Cavalli: the Venetian Semenzato and the Lombard Pe (who made his debut on the label with The Medici Castrato). Space is also found for one of the vocal genres which Cavalli can lay claim to instigating – the dramatic lamento, here in the form of Lassa, che fò from Statira. In addition, an intriguing picture of Cavalli and his operatic inspiration is to be found in the booklet essay written by Olivier Lexa.
Editorial Reviews
Two of the brightest singing talents to have emerged from Italy in recent years, Giulia Semenzato and Raffaele Pe, join forces for Sospiri damore, a dazzling celebration of operatic arias and duets by that Baroque master of amorous emotions, Francesco Cavalli. Soprano and countertenor are supported by a modern master of Italian Baroque style in Claudio Cavina, who directs La Venexiana (Cavina has also led the Glossa recording of Cavallis 1656opera Artemisia).Working in Venice with some of the best Italian librettists around in the mid-seventeenth century, Cavalli mined rich emotional seams concerning love in his operas from tragedy to comedy, from profundity to frivolousness, through to sensuality and vivacity conjuring up a stream of productions which enjoyed great artistic and financial success; his influence travelled far and wide, and even just in the immediate period of the Baroque this included Rameau, Lully and Handel and Purcell. With five full-scale duets amongst the solo arias, ariosos and recitar cantando, this new Glossa recording gloriously shows off the talents of two artists who have been gathering important stage experience in the operas of Cavalli: the Venetian Semenzato and the Lombard Pe (who made his debut on the label with The Medici Castrato). Space is also found for one of the vocal genres which Cavalli can lay claim to instigating the dramatic lamento, here in the form of Lassa, che fò from Statira. In addition, an intriguing picture of Cavalli and his operatic inspiration is to be found in the booklet essay written by Olivier Lexa.
Download
Для скачивания .torrent файлов необходима регистрация
Сайт не распространяет и не хранит электронные версии произведений, а лишь предоставляет доступ к создаваемому пользователями каталогу ссылок на торрент-файлы, которые содержат только списки хеш-сумм
[Профиль]  [ЛС] 

Caterina Sforza

Top Seed 06* 1280r

Стаж: 11 лет 4 месяца

Сообщений: 3616

Caterina Sforza · 24-Июн-18 21:47 (спустя 3 мин.)

[Цитировать] 

На замену: http://rutracker.org/forum/viewtopic.php?t=5351315
Релизу место в Опере, потому что это не вокальный сольник, а сцены, арии, дуэты, диалоги из разных опер Кавалли
[Профиль]  [ЛС] 

bot · 25-Июн-18 08:55 (спустя 11 часов)

Тема была перенесена из форума Опера (lossless) в форум Вокальная музыка (lossless)
kasatkal
 

kasatkal

Moderator

Стаж: 10 лет

Сообщений: 11673

kasatkal · 26-Июн-18 10:40 (спустя 1 день 12 часов)

[Цитировать] 

Caterina Sforza
Скажите, пожалуйста, Почему до сих пор нет раздачи?
[Профиль]  [ЛС] 
 
Ответить
Loading...
Error