Зачётный препод / Fack ju Göhte (Бора Дагтекин / Bora Dagtekin) [2013, Германия, Комедия, DVD5] R5 Dub

Страницы:  1

Ответить
Автор
Сообщение

J9-1000

Стаж: 5 лет 9 месяцев

Сообщений: 529

J9-1000 · 22-Июн-18 15:41 (4 месяца 24 дня назад)

Зачётный препод / Fack ju Göhte
Страна: Германия
Студии: Constantin Film, Rat Pack Filmproduktion GmbH
Жанр: Комедия
Год выпуска: 2013
Дата мировой премьеры: 7 ноября 2013
Дата российской премьеры: 4 декабря 2014, «Ракета Релизинг»
Дата выхода DVD релиза: 15 января 2015, «CD Land»
Продолжительность: 01:52:24
Перевод: Профессиональный (дублированный) [Лицензия]
Субтитры: Нет
Оригинальная аудиодорожка: Нет
Режиссер: Бора Дагтекин / Bora Dagtekin
Продюсеры: Кристиан Бекер, Лена Олбрич, Бора Дагтекин
Актеры: Элиас ЭмБарек, Каролина Херфурт, Катя Риман, Яна Палласке, Алвара Хёфельс, Йелла Хаазе, Макс фон Гробен, Анна-Лена Кленке, Гизем Эмре, Арам Арами
Описание:
Незадачливый грабитель банков Зеки Мюллер после тринадцати месяцев отсидки выходит из тюрьмы. Он отправляется на поиски награбленной добычи, которая была спрятана на стройке. Вместе с подружкой они думали, что там идёт всего-навсего прокладка труб. Каково же удивление горе-грабителя, когда он обнаруживает на нужном месте новенький школьный спортзал!
Чтобы добраться до награбленного, Зеки пытается устроиться на место школьного сторожа. Но в результате лёгкого недопонимания вместо этого его берут в качестве учителя на замену. Ему достаётся самый буйный и ненормальный класс во всей школе — 10 «Б». Используя несколько необычные методы, бывший грабитель неожиданно находит общий язык с учениками. Одновременно с этим по ночам он пытается добраться до спрятанной добычи и влюбляется в коллегу-учительницу Лиси.
Доп. материалы: Отсутствуют

Качество: DVD5 R5
Формат: DVD-Video
Видео: MPEG-2, [email protected] (PAL 16:9), ~4800 Кбит/сек
Аудио: AC3 5.1, 448 Кбит/сек [Русский - дублированный]
DVDInfo
Title: Fack ju Gohte (2013) DVD5 R5
Size: 4.14 Gb ( 4 344 158,00 KBytes ) - DVD-5
Enabled regions: 1, 2, 3, 4, 5, 6, 7, 8
VTS_01 :
Play Length: 00:00:19
Video: PAL 16:9 (720x576) VBR, Auto Pan&Scan, Auto Letterboxed
Audio:
Not specified (Dolby AC3, 2 ch)
VTS_02 :
Play Length: 01:52:24
Video: PAL 16:9 (720x576) VBR, Auto Pan&Scan, Auto Letterboxed
Audio:
Not specified, AC3, 3/2 (L,C,R,SL,SR)+LFE ch, 448 kbps, Delay 0 mSec
MediaInfo
Общее
Полное имя : G:\Torrents\Fack ju Gohte (2013) DVD5 R5\VIDEO_TS\VTS_02_3.VOB
Формат : MPEG-PS
Размер файла : 1024 Мбайт
Продолжительность : 26 м. 46 с.
Режим общего битрейта : Переменный
Общий поток : 5346 Кбит/сек
Видео
Идентификатор : 224 (0xE0)
Формат : MPEG Video
Версия формата : Version 2
Профиль формата : [email protected]
Настройки формата : CustomMatrix / BVOP
Параметр BVOP формата : Да
Параметр матрицы формата : Выборочная
Параметр GOP формата : Variable
Структура изображения : Frame
Продолжительность : 26 м. 46 с.
Вид битрейта : Переменный
Битрейт : 4792 Кбит/сек
Максимальный битрейт : 9000 Кбит/сек
Ширина : 720 пикселей
Высота : 576 пикселей
Соотношение сторон : 16:9
Частота кадров : 25,000 кадров/сек
Стандарт вещания : PAL
Цветовое пространство : YUV
Субдискретизация насыщенности : 4:2:0
Битовая глубина : 8 бит
Тип развёртки : Чересстрочная
Порядок развёртки : Верхнее поле первое
Метод сжатия : С потерями
Бит/(Пиксели*Кадры) : 0.462
Временной код первого кадра : 00:55:00:05
Оригинал временного кода : Group of pictures header
Размер потока : 918 Мбайт (90%)
Аудио
Идентификатор : 189 (0xBD)-128 (0x80)
Формат : AC-3
Формат/Информация : Audio Coding 3
Параметр Endianness формата : Big
Режим смешивания : DVD-Video
Продолжительность : 26 м. 46 с.
Вид битрейта : Постоянный
Битрейт : 448 Кбит/сек
Каналы : 6 каналов
Расположение каналов : Front: L C R, Side: L R, LFE
Частота : 48,0 КГц
Частота кадров : 31,250 кадров/сек (1536 SPF)
Битовая глубина : 16 бит
Метод сжатия : С потерями
Задержка видео : -760 мс.
Размер потока : 85,8 Мбайт (8%)
ServiceKind/String : Complete Main
Меню

Скриншоты меню
Скриншоты фильма

За предоставленный DVD спасибо большое AKIM2B
Раздаю с 10:00 до 23:00 до 10 скачавших.
Download
Для скачивания .torrent файлов необходима регистрация
Сайт не распространяет и не хранит электронные версии произведений, а лишь предоставляет доступ к создаваемому пользователями каталогу ссылок на торрент-файлы, которые содержат только списки хеш-сумм
[Профиль]  [ЛС] 

bot · 22-Июн-18 17:48 (спустя 2 часа 6 мин.)

Тема была перенесена из форума DVD Video в форум Зарубежное кино (DVD Video)
perrelcin
 

cr24

Стаж: 8 лет 9 месяцев

Сообщений: 1481

cr24 · 05-Июл-18 22:53 (спустя 13 дней)

[Цитировать] 

J9-1000 и AKIM2B Спасибо за первую часть Зачётного препода на DVD5 R5 )))
[Профиль]  [ЛС] 
 
Ответить
Loading...
Error