Rihanna - Needed Me (LPCM-Master-ProRes-1080p) [2016, Hip hop, Master, 1080p]

Страницы:  1

Ответить
Автор
Сообщение

Mar12gosha

Стаж: 4 года 8 месяцев

Сообщений: 63


Mar12gosha · 06-Июн-18 21:14 (1 месяц 13 дней назад, ред. 06-Июн-18 21:15)

Rihanna - Needed Me (LPCM-Master-ProRes-1080p)
Жанр: Hip hop
Продолжительность: 03:13
Год выпуска: 2016
Качество: Master
Разрешение видео/развертка: 1080p
Контейнер: MOV
Видео кодек: Apple ProRes
Аудио кодек: PCM
Видео: APCH422HQ, 1920*1080p, 170 Mbps, 23.976 fps
Аудио: LPCM, 1 411.2 Kbps, 44.1 KHz, 2 channels
Отчёт MediaInfo / BDInfo
General
Complete name : D:\Rihanna - Needed Me (LPCM-Master-ProRes-1080p).mov
Format : MPEG-4
Format profile : QuickTime
Codec ID : qt 2005.03 (qt )
File size : 3.86 GiB
Duration : 3 min 13 s
Overall bit rate mode : Variable
Overall bit rate : 171 Mb/s
Encoded date : UTC 2016-07-01 05:58:20
Tagged date : UTC 2016-07-01 05:58:41
Writing library : Apple QuickTime 7.7.6
com.apple.quicktime.player. : (Binary)
TIM : 00:00:00:00
TSC : 24000
TSZ : 1001
Video
ID : 1
Format : ProRes
Format version : Version 0
Format profile : 422 HQ
Codec ID : apch
Duration : 3 min 13 s
Bit rate mode : Variable
Bit rate : 170 Mb/s
Width : 1 920 pixels
Height : 1 080 pixels
Display aspect ratio : 16:9
Frame rate mode : Constant
Frame rate : 23.976 (24000/1001) FPS
Color space : YUV
Chroma subsampling : 4:2:2
Scan type : Progressive
Bits/(Pixel*Frame) : 3.413
Stream size : 3.83 GiB (99%)
Writing library : aut0
Language : English
Encoded date : UTC 2016-04-14 04:08:58
Tagged date : UTC 2016-07-01 05:58:41
Color primaries : BT.709
Transfer characteristics : BT.709
Matrix coefficients : BT.709
matrix_coefficients_Origina : BT.709
Audio
ID : 5
Format : PCM
Format settings : Little / Signed
Codec ID : sowt
Duration : 3 min 13 s
Bit rate mode : Constant
Bit rate : 1 411.2 kb/s
Channel(s) : 2 channels
Channel positions : Front: L R
Sampling rate : 44.1 kHz
Bit depth : 16 bits
Stream size : 32.6 MiB (1%)
Language : English
Encoded date : UTC 2016-07-01 05:58:06
Tagged date : UTC 2016-07-01 05:58:41
Text #1
ID : 4-CC1
Format : EIA-608
Muxing mode : Final Cut / CDP
Codec ID : c708
Duration : 3 min 13 s
Bit rate mode : Constant
Stream size : 0.00 Byte (0%)
Language : English
Forced : No
Encoded date : UTC 2016-04-14 04:08:58
Tagged date : UTC 2016-07-01 05:58:41
CaptionServiceName : CC1
Text #2
ID : 4-1
Format : EIA-708
Muxing mode : Final Cut / CDP
Codec ID : c708
Duration : 3 min 13 s
Bit rate mode : Constant
Stream size : 0.00 Byte (0%)
Language : English
Forced : No
Encoded date : UTC 2016-04-14 04:08:58
Tagged date : UTC 2016-07-01 05:58:41
Other
ID : 3
Type : Time code
Format : QuickTime TC
Duration : 3 min 13 s
Time code of first frame : 00:00:00:00
Time code, striped : Yes
Language : English
Encoded date : UTC 2016-04-14 04:08:58
Tagged date : UTC 2016-07-01 05:58:41
Скриншоты
Download
Для скачивания .torrent файлов необходима регистрация
Сайт не распространяет и не хранит электронные версии произведений, а лишь предоставляет доступ к создаваемому пользователями каталогу ссылок на торрент-файлы, которые содержат только списки хеш-сумм
[Профиль]  [ЛС] 

Lui87

Стаж: 6 лет 4 месяца

Сообщений: 9


Lui87 · 24-Июн-18 17:56 (спустя 17 дней)

[Цитировать] 

Nice share!
I have too music videos, about 14 TB from dance, house, pop, latin. ProRes, Encode also. I would like to talk with you, but I can not send you PM. Can you send it to me PM, so after that, maybe we can talk with each other and exchange some clip. I send you my list if you add to your friends.
Best,
Lui
[Профиль]  [ЛС] 
 
Ответить
Loading...
Error