Женевский автосалон 2018 / Geneva International Motor Show 2018 [13.03.18, Автошоу, IPTV-HDTV, 1080i] RU+EN

Страницы:  1

Ответить
Автор
Сообщение

FOX1725

Top Seed 03* 160r

Стаж: 8 лет 9 месяцев

Сообщений: 1535

FOX1725 · 14-Мар-18 01:42 (5 месяцев 4 дня назад)

Женевский автосалон 2018 / Geneva International Motor Show 2018
Страна: Швейцария (Женева)
Жанр: Автошоу
Дата выпуска: 13.03.18
Продолжительность: 00:14:31
Перевод: Профессиональный (дублированный)
Язык комментариев: Русский + English
Описание: Обзор новинок и новостей Женевского автосалона 2018г.

Автор записи: FOX
Доп. информация: Семпл
Качество: IPTV-HDTV
Формат видео: TS
Видео: H.264; 1920x1080 (16:9); 25 fps; ~10 Mbps
Аудио #1: Русский; MP2; 48 kHz; 2 ch; 192 kbps
Аудио #2: English; MP2; 48 kHz; 2 ch; 192 kbps
Скриншоты
MediaInfo
Код:
General #1
    ID : 1 (0x1)
    Complete name : e:\Mail.Ru.Cloud\Autosport2\Geneva.International.Motor.Show.2018.ts
    Format : MPEG-TS
    File size : 1.00 GiB
    Duration : 14mn 31s
    Overall bit rate mode : Variable
    Overall bit rate : 9 884 Kbps
  Video #256
    ID : 256 (0x100)
    Menu ID : 1 (0x1)
    Format : AVC
    Format/Info : Advanced Video Codec
    Format profile : [email protected]
    Format settings, CABAC : Yes
    Format settings, ReFrames : 4 frames
    Codec ID : 27
    Duration : 14mn 31s
    Bit rate : 8 363 Kbps
    Width : 1 920 pixels
    Height : 1 080 pixels
    Display aspect ratio : 16:9
    Frame rate : 25.000 fps
    Standard : Component
    Color space : YUV
    Chroma subsampling : 4:2:0
    Bit depth : 8 bits
    Scan type : Interlaced
    Bits/(Pixel*Frame) : 0.161
    Stream size : 869 MiB (85%)
    Color primaries : BT.709
    Transfer characteristics : BT.709
    Matrix coefficients : BT.709
  Audio #257
    ID : 257 (0x101)
    Menu ID : 1 (0x1)
    Format : AAC
    Format/Info : Advanced Audio Codec
    Format version : Version 4
    Format profile : LC
    Muxing mode : ADTS
    Codec ID : 15
    Duration : 14mn 31s
    Bit rate mode : Constant
    Bit rate : 511 Kbps
    Channel(s) : 2 channels
    Channel positions : Front: L R
    Sampling rate : 44.1 KHz
    Compression mode : Lossy
    Delay relative to video : -15ms
    Stream size : 53.1 MiB (5%)
    Language : Russian
  Audio #258
    ID : 258 (0x102)
    Menu ID : 1 (0x1)
    Format : AAC
    Format/Info : Advanced Audio Codec
    Format version : Version 4
    Format profile : LC
    Muxing mode : ADTS
    Codec ID : 15
    Duration : 14mn 31s
    Bit rate mode : Constant
    Bit rate : 511 Kbps
    Channel(s) : 2 channels
    Channel positions : Front: L R
    Sampling rate : 44.1 KHz
    Compression mode : Lossy
    Delay relative to video : -19ms
    Stream size : 53.1 MiB (5%)
    Language : English
  Menu #4096
    ID : 4096 (0x1000)
    Menu ID : 1 (0x1)
    Duration : 14mn 31s
    List : 256 (0x100) (AVC) / 257 (0x101) (AAC, Russian) / 258 (0x102) (AAC, English)
    Language :  / Russian / English
    Service name : Service01
    Service provider : FFmpeg
    Service type : digital television
Download
Для скачивания .torrent файлов необходима регистрация
Сайт не распространяет и не хранит электронные версии произведений, а лишь предоставляет доступ к создаваемому пользователями каталогу ссылок на торрент-файлы, которые содержат только списки хеш-сумм
[Профиль]  [ЛС] 
 
Ответить
Loading...
Error