N.E.R.D feat. Rihanna - Lemon [2017, Hip Hop/R`n`B, MasterRip, 1080p]

Страницы:  1

Ответить
Автор
Сообщение

Beta&Ksi

Top Seed 04* 320r

Стаж: 8 лет 6 месяцев

Сообщений: 1737

Beta&Ksi · 07-Дек-17 22:47 (11 месяцев назад, ред. 07-Дек-17 22:49)

N.E.R.D feat. Rihanna - Lemon Жанр: Hip Hop/R`n`B
Продолжительность: 00:03:10
Год выпуска: 2017
Описание: По своему оригинальное видео Lemon от музыкантов N.E.R.D. В начале клипа появляется Rihanna. Затем мы видим, как певица сбривает волосы у девушки. А потом начинается основное действие клипа - эмоциональные и психоделические танцы (теперь уже бритоголовой) девушки. Новый альбом, новые видео шедевры от N.E.R.D
P.S. Клип во многом напомнил мне идею видео The Chemical Brothers feat. Beck - Wide Open.
Качество: MasterRip
Разрешение видео/развертка: 1080p
Контейнер: MPEG4
Видео кодек: AVC
Аудио кодек: AAC
Видео: 1920 x 1080 (1.778) at 23.976 fps AVC at 15,8 Мбит/сек
Аудио: 2 канала, 48,0 КГц AAC at 317 Кбит/сек
Отчёт MediaInfo / BDInfo
Формат                                   : MPEG-4
Профиль формата : Base Media / Version 2
Идентификатор кодека : mp42 (mp42/mp41)
Размер файла : 366 Мбайт
Продолжительность : 3 м. 10 с.
Режим общего битрейта : Переменный
Общий поток : 16,1 Мбит/сек
©TIM : 00:00:00:00
©TSC : 24000
©TSZ : 1001
Видео
Идентификатор : 1
Формат : AVC
Формат/Информация : Advanced Video Codec
Профиль формата : [email protected]
Параметр CABAC формата : Да
Параметр ReFrames формата : 4 кадра
Параметр GOP формата : M=3, N=23
Идентификатор кодека : avc1
Идентификатор кодека/Информация : Advanced Video Coding
Продолжительность : 3 м. 10 с.
Продолжительность оригинала : 3 м. 10 с.
Вид битрейта : Переменный
Битрейт : 15,8 Мбит/сек
Максимальный битрейт : 20,0 Мбит/сек
Ширина : 1920 пикселей
Высота : 1080 пикселей
Соотношение сторон : 16:9
Режим частоты кадров : Постоянный
Частота кадров : 23,976 (24000/1001) кадра/сек
Стандарт вещания : NTSC
Цветовое пространство : YUV
Субдискретизация насыщенности : 4:2:0
Битовая глубина : 8 бит
Тип развёртки : Прогрессивная
Бит/(Пиксели*Кадры) : 0.318
Размер потока : 359 Мбайт (98%)
Размер потока оригинала : 359 Мбайт (98%)
Язык : English
Цветовой диапазон : Limited
Основные цвета : BT.709
Характеристики трансфера : BT.709
Коэффициенты матрицы : BT.709
Аудио
Идентификатор : 2
Формат : AAC
Формат/Информация : Advanced Audio Codec
Профиль формата : LC
Идентификатор кодека : 40
Продолжительность : 3 м. 10 с.
Продолжительность оригинала : 3 м. 10 с.
Вид битрейта : Переменный
Битрейт : 317 Кбит/сек
Максимальный битрейт : 466 Кбит/сек
Каналы : 2 канала
Расположение каналов : Front: L R
Частота : 48,0 КГц
Частота кадров : 46,875 кадров/сек (1024 spf)
Метод сжатия : С потерями
Размер потока : 7,21 Мбайт (2%)
Размер потока оригинала : 7,21 Мбайт (2%)
Язык : English
Скриншоты
Download
Для скачивания .torrent файлов необходима регистрация
Сайт не распространяет и не хранит электронные версии произведений, а лишь предоставляет доступ к создаваемому пользователями каталогу ссылок на торрент-файлы, которые содержат только списки хеш-сумм
[Профиль]  [ЛС] 
 
Ответить
Loading...
Error