Rita Ora • BBC Radio 1's Big Weekend [2017, RnB, Pop, HDTV, 1080i(feed)]

Страницы:  1

Ответить
Автор
Сообщение

meloman67

Moderator

Стаж: 9 лет 6 месяцев

Сообщений: 5731

meloman67 · 30-Май-17 18:05 (1 год 4 месяца назад, ред. 31-Май-17 05:04)


Rita Ora

FEED
Жанр: RnB, Pop
Продолжительность: 00:28:34
Год выпуска: 2017
Качество: HDTV
Разрешение видео/развертка: 1080i
Контейнер: TS
Видео кодек: H.264
Аудио кодек: MP2
Видео: MPEG4 Video (H264) 1920x1080 25fps 14.0 Mb/s
Аудио: MPEG Audio 48000Hz stereo 384kbps
Треклист
I Will Never Let You Down
Your Song
Poison
You Don't Know Me (Jax Jones cover) (with RAYE)
Girls
Coming Home (Sigala cover)
Black Widow (Iggy Azalea cover)
Summer Love
Hot Right Now (DJ Fresh cover)
Отчёт MediaInfo / BDInfo
General
ID : 1 (0x1)
Complete name : L:\Rita Ora - BBC Radio 1's Big Weekend 2017.ts
Format : MPEG-TS
File size : 3.09 GiB
Duration : 28 min 33 s
Overall bit rate mode : Variable
Overall bit rate : 15.5 Mb/s
Video
ID : 512 (0x200)
Menu ID : 1 (0x1)
Format : AVC
Format/Info : Advanced Video Codec
Format profile : [email protected]
Format settings, CABAC : Yes
Format settings, ReFrames : 4 frames
Codec ID : 27
Duration : 28 min 32 s
Bit rate : 14.0 Mb/s
Width : 1 920 pixels
Height : 1 080 pixels
Display aspect ratio : 16:9
Frame rate : 25.000 FPS
Color space : YUV
Chroma subsampling : 4:2:0
Bit depth : 8 bits
Scan type : Interlaced
Scan type, store method : Separated fields
Scan order : Top Field First
Bits/(Pixel*Frame) : 0.269
Stream size : 2.78 GiB (90%)
Color range : Limited
Color primaries : BT.709
Transfer characteristics : BT.709
Matrix coefficients : BT.709
Audio #1
ID : 4112 (0x1010)
Menu ID : 1 (0x1)
Format : MPEG Audio
Format version : Version 1
Format profile : Layer 2
Codec ID : 3
Duration : 28 min 33 s
Bit rate mode : Constant
Bit rate : 384 kb/s
Channel(s) : 2 channels
Sampling rate : 48.0 kHz
Compression mode : Lossy
Delay relative to video : 110 ms
Stream size : 78.4 MiB (2%)
Language : English
Audio #2
ID : 4128 (0x1020)
Menu ID : 1 (0x1)
Format : MPEG Audio
Format version : Version 1
Format profile : Layer 2
Codec ID : 3
Duration : 28 min 33 s
Bit rate mode : Constant
Bit rate : 384 kb/s
Channel(s) : 2 channels
Sampling rate : 48.0 kHz
Compression mode : Lossy
Delay relative to video : 110 ms
Stream size : 78.4 MiB (2%)
Language : English
Download
Для скачивания .torrent файлов необходима регистрация
Сайт не распространяет и не хранит электронные версии произведений, а лишь предоставляет доступ к создаваемому пользователями каталогу ссылок на торрент-файлы, которые содержат только списки хеш-сумм
[Профиль]  [ЛС] 
 
Ответить
Loading...
Error