D'Angelo • Sometimes It Snows In April (The Tonight Show Starring Jimmy Fallon) [2016, Soul, R&B, HDTV, 1080i]

Страницы:  1

Ответить
Автор
Сообщение

meloman67

Moderator

Стаж: 9 лет 6 месяцев

Сообщений: 5731

meloman67 · 01-Май-16 19:53 (2 года 5 месяцев назад)


D'Angelo
A tribute to Prince featuring Princess (Maya Rudolph and Gretchen Lieberum)


Жанр: Soul, R&B
Продолжительность: 00:07:08
Год выпуска: 2016
Качество: HDTV
Разрешение видео/развертка: 1080i
Контейнер: TS
Видео кодек: MPEG2
Аудио кодек: AC3
Видео: MPEG2 Video 1920x1080 29.97fps 9 644 Kbps
Аудио: Dolby AC3 48000Hz 6ch 384kbps
Отчёт MediaInfo / BDInfo
General
ID : 1 (0x1)
Complete name : F:\D'Angelo - Sometimes It Snows In April (The Tonight Show Starring Jimmy Fallon) 2016.ts
Format : MPEG-TS
File size : 539 MiB
Duration : 7mn 8s
Overall bit rate mode : Variable
Overall bit rate : 10.6 Mbps
Law rating : N/A
Video
ID : 224 (0xE0)
Menu ID : 1 (0x1)
Format : MPEG Video
Format version : Version 2
Format profile : [email protected]
Format settings, BVOP : Yes
Format settings, Matrix : Custom
Format settings, GOP : Variable
Format settings, picture struc : Frame
Codec ID : 2
Duration : 7mn 7s
Bit rate mode : Variable
Bit rate : 9 644 Kbps
Maximum bit rate : 24.0 Mbps
Width : 1 920 pixels
Height : 1 080 pixels
Display aspect ratio : 16:9
Active Format Description : Full frame 16:9 image
Frame rate : 29.970 fps
Color space : YUV
Chroma subsampling : 4:2:0
Bit depth : 8 bits
Scan type : Interlaced
Scan order : Top Field First
Compression mode : Lossy
Bits/(Pixel*Frame) : 0.155
Time code of first frame : 00:00:00;00
Time code source : Group of pictures header
GOP, Open/Closed : Open
GOP, Open/Closed of first fram : Closed
Stream size : 492 MiB (91%)
Audio
ID : 128 (0x80)
Menu ID : 1 (0x1)
Format : AC-3
Format/Info : Audio Coding 3
Mode extension : CM (complete main)
Format settings, Endianness : Big
Codec ID : 129
Duration : 7mn 7s
Bit rate mode : Constant
Bit rate : 384 Kbps
Channel(s) : 6 channels
Channel positions : Front: L C R, Side: L R, LFE
Sampling rate : 48.0 KHz
Compression mode : Lossy
Delay relative to video : 32ms
Stream size : 19.6 MiB (4%)
Language : English
Скриншоты
Download
Для скачивания .torrent файлов необходима регистрация
Сайт не распространяет и не хранит электронные версии произведений, а лишь предоставляет доступ к создаваемому пользователями каталогу ссылок на торрент-файлы, которые содержат только списки хеш-сумм
[Профиль]  [ЛС] 
 
Ответить
Loading...
Error