Юбилейный вечер Валентина Гафта [2016, Концерт, HDTVRip]

Страницы:  1

Ответить
Автор
Сообщение

Doc66

RG Русские сериалы

Стаж: 11 лет 7 месяцев

Сообщений: 3403

Doc66 · 11-Янв-16 13:00 (2 года 3 месяца назад, ред. 11-Янв-16 13:05)

Юбилейный вечер Валентина Гафта
Жанр: Концерт
Год выпуска: 2016
Продолжительность: 01:30:19
Ведущие: Виктория Романенко, Чулпан Хаматова, Никита Ефремов, Александр Олешко
Описание: Валентин Гафт не любит пышных торжеств и повышенного внимания к своей персоне, но к мероприятиям в честь своего 80-летия отнёсся по-философски спокойно.
Ведущие вечера Виктория Романенко, Чулпан Хаматова, Никита Ефремов и Александр Олешко прочли эпиграммы знаменитых людей, написанных в свое время на Гафта, но все равно превзойти талант юбиляра не мог, разумеется, никто. Самый большой успех вызывали строчки, сочиненные самим Гафтом. "Тем, у кого таланта нет ни грамма, от Гафта не дождаться эпиграммы", - подытожил Михаил Ефремов. Помимо него стихи читали Игорь Золотовицкий и Геннадий Хазанов, молодые артисты "Современника" и даже представители футбольного клуба "Спартак", за который юбиляр болеет с детства ...
Семпл: http://multi-up.com/1083644
Качество видео: HDTVRip
Формат видео: AVI
Видео: 720x400 (1.80:1), 25 fps, XviD build 73 ~1900 kbps avg, 0.26 bit/pixel
Аудио: 48 kHz, AC3 Dolby Digital, 2/0 (L,R) ch, ~192 kbps
MediaInfo
Общее
Полное имя : E:\kodirovany\Юбилейный вечер Валентина Гафта.2016.HDTVRip.Doc66.avi
Формат : AVI
Формат/Информация : Audio Video Interleave
Размер файла : 1,33 Гбайт
Продолжительность : 1 ч. 30 м.
Общий поток : 2103 Кбит/сек
Программа кодирования : VirtualDubMod 1.5.10.3 | www.virtualdub-fr.org || (build 2550/release)
Библиотека кодирования : VirtualDubMod build 2550/release
Видео
Идентификатор : 0
Формат : MPEG-4 Visual
Профиль формата : Advanced [email protected]
Параметр BVOP формата : 1
Параметр QPel формата : Нет
Параметр GMC формата : Без точки перехода
Параметр матрицы формата : Выборочная
Идентификатор кодека : XVID
Идентификатор кодека/Подсказка : XviD
Продолжительность : 1 ч. 30 м.
Битрейт : 1901 Кбит/сек
Ширина : 720 пикселей
Высота : 400 пикселей
Соотношение сторон : 16:9
Частота кадров : 25,000 кадров/сек
Цветовое пространство : YUV
Субдискретизация насыщенности : 4:2:0
Битовая глубина : 8 бит
Тип развёртки : Прогрессивная
Метод сжатия : С потерями
Бит/(Пиксели*Кадры) : 0.264
Размер потока : 1,20 Гбайт (90%)
Библиотека кодирования : XviD 73
Аудио
Идентификатор : 1
Формат : AC-3
Формат/Информация : Audio Coding 3
Расширение режима : CM (complete main)
Параметр Endianness формата : Big
Идентификатор кодека : 2000
Продолжительность : 1 ч. 30 м.
Вид битрейта : Постоянный
Битрейт : 192 Кбит/сек
Каналы : 2 канала
Расположение каналов : Front: L R
Частота : 48,0 КГц
Метод сжатия : С потерями
Размер потока : 124 Мбайт (9%)
Выравнивание : Разделение по промежуткам
Продолжительность промежутка : 40 мс. (1,00 видеокадр)
Время предзагрузки промежутка : 500 мс.
Скриншоты
Исходный материал
Download
Для скачивания .torrent файлов необходима регистрация
Сайт не распространяет и не хранит электронные версии произведений, а лишь предоставляет доступ к создаваемому пользователями каталогу ссылок на торрент-файлы, которые содержат только списки хеш-сумм
[Профиль]  [ЛС] 
 
Ответить
Loading...
Error