Pitbull - Fun / Time of Our Lives Medley (The Tonight Show starring Jimmy Fallon 20.05.2015) [2015, Hip-Hop, HDTVRip 1080p]

Страницы:  1

Ответить
Автор
Сообщение

AlexSchl

VIP (Заслуженный)

Стаж: 9 лет 8 месяцев

Сообщений: 3001

AlexSchl · 30-Май-15 01:18 (3 года 3 месяца назад, ред. 12-Июн-15 21:53)

Pitbull - Fun / Time of Our Lives Medley
(The Tonight Show starring Jimmy Fallon 20.05.2015)

Жанр: Hip-Hop
Продолжительность: 00:04:16
Год выпуска: 2015
Описание: Pitbull в вечернем шоу телеканала NBC The Tonight Show starring Jimmy Fallon 20.05.2015 c
Fun / Time of Our Lives Medley.
Качество: HDTVRip 1080p
Контейнер: MKV
Видео кодек: H.264
Аудио кодек: AC3
Видео: 1916x1076 (16:9), 11.9 Mbps, 29.970 fps
Аудио: AC3, 384 Kbps, 48.0 KHz, 6 channels
Mediainfo
avs [info]: 1916x1076p 1:1 @ 30000/1001 fps (cfr)
x264 [info]: using cpu capabilities: MMX2 SSE2Fast SSSE3 SSE4.2 AVX FMA3 AVX2 LZCNT BMI2
x264 [info]: profile High, level 4.1
x264 [info]: frame I:55 Avg QP:19.06 size:141140
x264 [info]: frame P:1870 Avg QP:20.69 size: 92847
x264 [info]: frame B:5776 Avg QP:23.10 size: 36096
x264 [info]: consecutive B-frames: 1.1% 1.6% 14.1% 49.1% 12.9% 21.0% 0.2% 0.0% 0.0%
x264 [info]: mb I I16..4: 15.6% 74.6% 9.8%
x264 [info]: mb P I16..4: 8.6% 28.8% 2.6% P16..4: 38.2% 14.8% 5.5% 0.0% 0.0% skip: 1.5%
x264 [info]: mb B I16..4: 0.8% 2.7% 0.3% B16..8: 39.9% 9.9% 2.1% direct:10.2% skip:34.1% L0:39.0% L1:40.9% BI:20.1%
x264 [info]: 8x8 transform intra:71.7% inter:72.7%
x264 [info]: coded y,uvDC,uvAC intra: 64.3% 91.7% 68.2% inter: 22.5% 41.8% 7.9%
x264 [info]: i16 v,h,dc,p: 34% 14% 10% 41%
x264 [info]: i8 v,h,dc,ddl,ddr,vr,hd,vl,hu: 15% 8% 8% 9% 11% 14% 11% 13% 11%
x264 [info]: i4 v,h,dc,ddl,ddr,vr,hd,vl,hu: 14% 8% 4% 9% 13% 14% 13% 11% 12%
x264 [info]: i8c dc,h,v,p: 26% 18% 30% 26%
x264 [info]: Weighted P-Frames: Y:1.8% UV:1.7%
x264 [info]: ref P L0: 59.0% 10.3% 22.6% 7.0% 1.2% 0.0%
x264 [info]: ref B L0: 91.7% 6.8% 1.4%
x264 [info]: ref B L1: 97.4% 2.6%
x264 [info]: kb/s:12138.38
encoded 7701 frames, 1.79 fps, 12138.38 kb/s
Код:
General
Unique ID                   : 194600218620618031332368868499530274594 (0x9266A389E053ECE79A37441840655722)
Complete name               : \Pitbull.Fun.Time.Of.MyLife.The.Tonight.Show.2015.HDTVRip.1080p.mkv
Format                      : Matroska
Format version              : Version 4 / Version 2
File size                   : 384 MiB
Duration                    : 4mn 16s
Overall bit rate            : 12.5 Mbps
Encoded date                : UTC 2015-05-29 21:09:59
Writing application         : mkvmerge v7.9.0 ('Birds') 64bit
Writing library             : libebml v1.3.1 + libmatroska v1.4.2
DURATION                    : 00:04:16.960000000
NUMBER_OF_FRAMES            : 8030
NUMBER_OF_BYTES             : 12334080
_STATISTICS_WRITING_APP     : mkvmerge v7.9.0 ('Birds') 64bit
_STATISTICS_WRITING_DATE_UT : 2015-05-29 21:09:59
_STATISTICS_TAGS            : BPS DURATION NUMBER_OF_FRAMES NUMBER_OF_BYTES
Video
ID                          : 1
Format                      : AVC
Format/Info                 : Advanced Video Codec
Format profile              : [email protected]
Format settings, CABAC      : Yes
Format settings, ReFrames   : 4 frames
Codec ID                    : V_MPEG4/ISO/AVC
Duration                    : 4mn 16s
Bit rate                    : 11.9 Mbps
Width                       : 1 916 pixels
Height                      : 1 076 pixels
Display aspect ratio        : 16:9
Frame rate mode             : Constant
Frame rate                  : 29.970 fps
Color space                 : YUV
Chroma subsampling          : 4:2:0
Bit depth                   : 8 bits
Scan type                   : Progressive
Bits/(Pixel*Frame)          : 0.192
Stream size                 : 364 MiB (95%)
Writing library             : x264 core 146 r2538 121396c
Encoding settings           : cabac=1 / ref=4 / deblock=1:-3:-3 / analyse=0x3:0x113 / me=umh / subme=9 / psy=1 / psy_rd=1.00:0.00 / mixed_ref=1 / me_range=24 / chroma_me=1 / trellis=2 / 8x8dct=1 / cqm=0 / deadzone=21,11 / fast_pskip=0 / chroma_qp_offset=-2 / threads=12 / lookahead_threads=2 / sliced_threads=0 / nr=0 / decimate=1 / interlaced=0 / bluray_compat=0 / constrained_intra=0 / bframes=8 / b_pyramid=2 / b_adapt=2 / b_bias=0 / direct=1 / weightb=1 / open_gop=0 / weightp=2 / keyint=250 / keyint_min=25 / scenecut=40 / intra_refresh=0 / rc_lookahead=50 / rc=crf / mbtree=0 / crf=20.0 / qcomp=0.60 / qpmin=0 / qpmax=69 / qpstep=4 / vbv_maxrate=50000 / vbv_bufsize=62500 / crf_max=0.0 / nal_hrd=none / filler=0 / ip_ratio=1.40 / pb_ratio=1.30 / aq=3:0.80
Default                     : Yes
Forced                      : No
Color range                 : Limited
Color primaries             : BT.709
Transfer characteristics    : BT.709
Matrix coefficients         : BT.709
Audio
ID                          : 2
Format                      : AC-3
Format/Info                 : Audio Coding 3
Mode extension              : CM (complete main)
Format settings, Endianness : Big
Codec ID                    : A_AC3
Duration                    : 4mn 16s
Bit rate mode               : Constant
Bit rate                    : 384 Kbps
Channel(s)                  : 6 channels
Channel positions           : Front: L C R, Side: L R, LFE
Sampling rate               : 48.0 KHz
Compression mode            : Lossy
Delay relative to video     : 3ms
Stream size                 : 11.8 MiB (3%)
Language                    : English
Default                     : Yes
Forced                      : No
Скриншоты
Download
Для скачивания .torrent файлов необходима регистрация
Сайт не распространяет и не хранит электронные версии произведений, а лишь предоставляет доступ к создаваемому пользователями каталогу ссылок на торрент-файлы, которые содержат только списки хеш-сумм
[Профиль]  [ЛС] 
 
Ответить
Loading...
Error