(Rock) [CD] Мачете - Мачете - 2012, FLAC (image+.cue), lossless

Страницы:  1

Ответить
Автор
Сообщение

bant7979

Стаж: 9 лет 9 месяцев

Сообщений: 23

bant7979 · 24-Янв-14 20:29 (4 года 10 месяцев назад)

Мачете / Мачете
Жанр: Rock
Носитель: CD
Страна-производитель диска: Россия
Год издания: 2012
Страна: Россия
Аудиокодек: FLAC (*.flac)
Тип рипа: image+.cue
Битрейт аудио: lossless
Продолжительность: 00:48:28
Источник (релизер): Lossless-Galaxy
Наличие сканов в содержимом раздачи: да
Треклист:
01. Папа
02. Пацаны
03. Пока всё так
04. Не расставайтесь
05. Между висками
06. Для нас с тобой
07.Пройденный путь
08. Нежность
09. Весна
10. Мачете
11. Пальцы
Лог создания рипа
Exact Audio Copy V1.0 beta 3 from 29. August 2011
Отчёт EAC об извлечении, выполненном 28. декабря 2012, 13:15
Мачете / Мачете
Дисковод: TSSTcorpCDDVDW SE-S084C Adapter: 1 ID: 0
Режим чтения : Достоверность
Использование точного потока : Да
Отключение кэша аудио : Да
Использование указателей C2 : Нет
Коррекция смещения при чтении : 6
Способность читать области Lead-in и Lead-out : Нет
Заполнение пропущенных сэмплов тишиной : Да
Удаление блоков с тишиной в начале и конце : Нет
При вычислениях CRC использовались нулевые сэмплы : Да
Интерфейс : Встроенный Win32-интерфейс для Win NT/2000
Выходной формат : Пользовательский кодировщик
Выбранный битрейт : 768 kBit/s
Качество : Высокий
Добавление ID3-тега : Нет
Утилита сжатия : C:\Program Files\Exact Audio Copy\FLAC\FLAC.EXE
Дополнительные параметры : -6 -V -T "ARTIST=%artist%" -T "TITLE=%title%" -T "ALBUM=%albumtitle%" -T "DATE=%year%" -T "TRACKNUMBER=%tracknr%" -T "GENRE=%genre%" -T "COMMENT=%comment%" -T "BAND=%albuminterpret%" -T "ALBUMARTIST=%albuminterpret%" -T "COMPOSER=%composer%" %haslyrics%--tag-from-file=LYRICS="%lyricsfile%"%haslyrics% -T "DISCNUMBER=%cdnumber%" -T "TOTALDISCS=%totalcds%" -T "TOTALTRACKS=%numtracks%" %hascover%--picture="%coverfile%"%hascover% %source% -o %dest%
TOC извлечённого CD
Трек | Старт | Длительность | Начальный сектор | Конечный сектор
---------------------------------------------------------------------
1 | 0:00.00 | 4:28.35 | 0 | 20134
2 | 4:28.35 | 4:03.27 | 20135 | 38386
3 | 8:31.62 | 4:31.02 | 38387 | 58713
4 | 13:02.64 | 3:44.27 | 58714 | 75540
5 | 16:47.16 | 2:14.33 | 75541 | 85623
6 | 19:01.49 | 3:27.47 | 85624 | 101195
7 | 22:29.21 | 4:38.37 | 101196 | 122082
8 | 27:07.58 | 4:50.13 | 122083 | 143845
9 | 31:57.71 | 4:30.32 | 143846 | 164127
10 | 36:28.28 | 3:38.47 | 164128 | 180524
11 | 40:07.00 | 8:34.00 | 180525 | 219074
Характеристики диапазона извлечения и сообщения об ошибках
Выбранный диапазон
Имя файла C:\Users\Stranger\Desktop\Новая папка\Мачете - Мачете.wav
Пиковый уровень 100.0 %
Скорость извлечения 4.1 X
Качество диапазона 100.0 %
CRC теста E42EF2CF
CRC копии E42EF2CF
Копирование... OK
Ошибок не произошло
Конец отчёта
Содержание индексной карты (.CUE)
REM GENRE Рок
REM DATE 2012
REM DISCID 850B690B
REM COMMENT ExactAudioCopy v1.0b3
PERFORMER ""
TITLE "Мачете"
FILE "Мачете - Мачете.flac" WAVE
TRACK 01 AUDIO
TITLE "Папа"
PERFORMER "Мачете"
INDEX 01 00:00:00
TRACK 02 AUDIO
TITLE "Пацаны"
PERFORMER "Мачете"
INDEX 00 04:26:35
INDEX 01 04:28:35
TRACK 03 AUDIO
TITLE "Пока всё так"
PERFORMER "Мачете"
INDEX 00 08:29:62
INDEX 01 08:31:62
TRACK 04 AUDIO
TITLE "Не расставайтесь"
PERFORMER "Мачете"
INDEX 00 13:00:64
INDEX 01 13:02:64
TRACK 05 AUDIO
TITLE "Между висками"
PERFORMER "Мачете"
INDEX 00 16:45:16
INDEX 01 16:47:16
TRACK 06 AUDIO
TITLE "Для нас с тобой"
PERFORMER "Мачете"
INDEX 00 18:59:49
INDEX 01 19:01:49
TRACK 07 AUDIO
TITLE "Пройденный путь"
PERFORMER "Мачете"
INDEX 00 22:27:21
INDEX 01 22:29:21
TRACK 08 AUDIO
TITLE "Нежность"
PERFORMER "Мачете"
INDEX 00 27:05:58
INDEX 01 27:07:58
TRACK 09 AUDIO
TITLE "Весна"
PERFORMER "Мачете"
INDEX 00 31:55:71
INDEX 01 31:57:71
TRACK 10 AUDIO
TITLE "Мачете"
PERFORMER "Мачете"
INDEX 00 36:26:28
INDEX 01 36:28:28
TRACK 11 AUDIO
TITLE "Пальцы"
PERFORMER "Мачете"
INDEX 00 40:05:00
INDEX 01 40:07:00
Download
Для скачивания .torrent файлов необходима регистрация
Сайт не распространяет и не хранит электронные версии произведений, а лишь предоставляет доступ к создаваемому пользователями каталогу ссылок на торрент-файлы, которые содержат только списки хеш-сумм
[Профиль]  [ЛС] 

kos2608

Стаж: 7 лет 7 месяцев

Сообщений: 610

kos2608 · 26-Янв-14 08:49 (спустя 1 день 12 часов)

[Цитировать] 

Так себе. У Агутина и то лучше получается.
[Профиль]  [ЛС] 

U.R.F.I.N.

Стаж: 9 лет 10 месяцев

Сообщений: 135

U.R.F.I.N. · 04-Сен-14 21:52 (спустя 7 месяцев)

[Цитировать] 

Спасибо! Очень понравилось. Жаль, что сканы не полностью.
[Профиль]  [ЛС] 

Vovan1979

Стаж: 10 лет 2 месяца

Сообщений: 521

Vovan1979 · 14-Сен-14 22:26 (спустя 10 дней, ред. 14-Сен-14 22:26)

[Цитировать] 

bant7979
Всё в меру!Песня-Нежность-Оченьочень!!!
Песня-Не расставайтесь-Душа!!!
bant7979
Вам спасибо!
[Профиль]  [ЛС] 

Дoждь

Стаж: 11 лет

Сообщений: 4


Дoждь · 09-Окт-14 02:48 (спустя 24 дня)

[Цитировать] 

Если есть у кого - выложите пожалуйста порезанное на треки. Спасибо
[Профиль]  [ЛС] 

Nathan55

Стаж: 9 лет

Сообщений: 18

Nathan55 · 21-Янв-15 19:53 (спустя 3 месяца 12 дней)

[Цитировать] 

Да, "Не Расставайтесь" очень пробирает...
Хороший альбом, качественный, спасибо автору!
[Профиль]  [ЛС] 

DroN+

Стаж: 10 лет 2 месяца

Сообщений: 13

DroN+ · 24-Май-17 13:14 (спустя 2 года 4 месяца)

[Цитировать] 

Супер! Всем советую. Когда у них новое будет что нибудь?
[Профиль]  [ЛС] 
 
Ответить
Loading...
Error