(Blues) [CD] John Brim - Jake's Blues - 1999, FLAC (image+.cue), lossless

Страницы:  1

Ответить
Автор
Сообщение

ЗУБ2007

Стаж: 10 лет 7 месяцев

Сообщений: 2578


ЗУБ2007 · 05-Дек-13 15:34 (4 года 4 месяца назад)

John Brim - Jake's Blues
Жанр: Blues
Носитель: CD
Год издания: 1999
Аудиокодек: FLAC (*.flac)
Тип рипа: image+.cue
Битрейт аудио: lossless
Продолжительность: 51:18
Источник (релизер): Свой рип
Наличие сканов в содержимом раздачи: да
(скан диска не оригинал)
Треклист:
01. Tougher Times [0:03:36.66]
02. Walkin' With Grace [0:04:14.89]
03. What May Be Your Name [0:05:49.80]
04. You Put The Hurt On Me [0:04:00.37]
05. I Just Got To Know [0:06:31.76]
06. Dedicated To Grace (Part 1) [0:04:26.97]
07. Boogie Home [0:03:26.60]
08. No Place To Go [0:02:13.36]
09. Hey Baby [0:05:37.90]
10. Movin' Out Too [0:01:50.02]
11. Dedicated To Grace (Part 2) [0:04:40.33]
12. Oooowee [0:02:58.10]
13. * [0:01:50.82]
Лог создания рипа
Exact Audio Copy V0.99 prebeta 4 from 23. January 2008
Отчёт EAC об извлечении, выполненном 3. сентября 2011, 1:17
John Brim / Jake's Blues
Дисковод: Optiarc DVD RW AD-7173A Adapter: 0 ID: 1
Режим чтения : Достоверность
Использование точного потока : Да
Отключение кэша аудио : Да
Использование указателей C2 : Нет
Коррекция смещения при чтении : 48
Способность читать области Lead-in и Lead-out : Нет
Заполнение пропущенных сэмплов тишиной : Да
Удаление блоков с тишиной в начале и конце : Нет
При вычислениях CRC использовались нулевые сэмплы : Да
Интерфейс : Встроенный Win32-интерфейс для Win NT/2000
Выходной формат : Внутренние WAV-операции
Формат сэмплов : 44.100 Гц; 16 бит; стерео
TOC извлечённого CD
Трек | Старт | Длительность | Начальный сектор | Конечный сектор
---------------------------------------------------------------------
1 | 0:00.00 | 3:36.50 | 0 | 16249
2 | 3:36.50 | 4:14.67 | 16250 | 35366
3 | 7:51.42 | 5:49.60 | 35367 | 61601
4 | 13:41.27 | 4:00.28 | 61602 | 79629
5 | 17:41.55 | 6:31.57 | 79630 | 109011
6 | 24:13.37 | 4:26.73 | 109012 | 129034
7 | 28:40.35 | 3:26.45 | 129035 | 144529
8 | 32:07.05 | 2:13.27 | 144530 | 154531
9 | 34:20.32 | 5:37.68 | 154532 | 179874
10 | 39:58.25 | 1:50.02 | 179875 | 188126
11 | 41:48.27 | 4:40.25 | 188127 | 209151
12 | 46:28.52 | 2:58.08 | 209152 | 222509
13 | 49:26.60 | 1:50.62 | 222510 | 230821
Характеристики диапазона извлечения и сообщения об ошибках
Выбранный диапазон
Имя файла D:\КОЛЛЕКЦИЯ 12\Новая папка (2)\John Brim - Jake's Blues.wav
Пиковый уровень 100.0 %
Качество диапазона 99.9 %
CRC теста 12F4303A
CRC копии 12F4303A
Копирование... OK
Ошибок не произошло
AccurateRip: сводка
Трек 1 нет в базе данных
Трек 2 нет в базе данных
Трек 3 нет в базе данных
Трек 4 нет в базе данных
Трек 5 нет в базе данных
Трек 6 нет в базе данных
Трек 7 нет в базе данных
Трек 8 нет в базе данных
Трек 9 нет в базе данных
Трек 10 нет в базе данных
Трек 11 нет в базе данных
Трек 12 нет в базе данных
Трек 13 нет в базе данных
Ни одного трека нет в базе AccurateRip
Конец отчёта
Download
Для скачивания .torrent файлов необходима регистрация
Сайт не распространяет и не хранит электронные версии произведений, а лишь предоставляет доступ к создаваемому пользователями каталогу ссылок на торрент-файлы, которые содержат только списки хеш-сумм
[Профиль]  [ЛС] 

jazznblues

Стаж: 9 лет 10 месяцев

Сообщений: 2879

jazznblues · 05-Дек-13 16:37 (спустя 1 час 3 мин.)

[Цитировать] 

ЗУБ2007
Какой Ты сегодня фейерверк устроил! Прям, праздник какой-то!
А деда этого мы знаем по серии Chicago Blues Session от Wolf Records. Матёрый чикагский дед.
[Профиль]  [ЛС] 

рмх222

VIP (Заслуженный)

Стаж: 11 лет 2 месяца

Сообщений: 9259

рмх222 · 26-Апр-14 22:49 (спустя 4 месяца 21 день)

[Цитировать] 

Замечательный альбом.
ЗУБ2007
[Профиль]  [ЛС] 

jazznblues

Стаж: 9 лет 10 месяцев

Сообщений: 2879

jazznblues · 28-Апр-14 10:10 (спустя 1 день 11 часов)

[Цитировать] 

рмх222
Слушал. Согласен. Хороший черный блуз.
[Профиль]  [ЛС] 

emgalai

Стаж: 8 лет 11 месяцев

Сообщений: 494

emgalai · 21-Мар-18 12:09 (спустя 3 года 10 месяцев, ред. 21-Мар-18 12:09)

[Цитировать] 

На отчисления с одной только песни Ice Cream Man с первого альбома Van Halen (John Brim - автор песни) он смог открыть клуб в Чикаго!!!
Но это еще до торрентов было
[Профиль]  [ЛС] 
 
Ответить
Loading...
Error