(Electric Chicago Blues, Piano Blues) Sunnyland Slim - Be Careful How You Vote - 1990, FLAC (tracks+.cue), lossless

Страницы:  1

Ответить
Автор
Сообщение

Smal_AV

Стаж: 9 лет 4 месяца

Сообщений: 1609

Smal_AV · 18-Авг-13 19:23 (4 года 8 месяцев назад, ред. 18-Авг-13 19:24)

Sunnyland Slim / Be Careful How You Vote
Жанр: Electric Chicago Blues, Piano Blues
Страна-производитель диска: Earwig Music Company, Inc.
Год издания: 1990
Аудиокодек: FLAC (*.flac)
Тип рипа: tracks+.cue
Битрейт аудио: lossless
Продолжительность: 40:22
Источник (релизер): Smal_AV
Наличие сканов в содержимом раздачи: да
Треклист:
01. You Can't Have It All [0:04:40.00]
02. Workin' Two Jobs [0:03:08.00]
03. Have A Good Day Now [0:03:47.73]
04. Chicago Jump [0:04:13.02]
05. Past Life [0:04:48.18]
06. Be Careful How You Vote [0:03:35.50]
07. Johnson Machine Gun [0:03:48.05]
08. Speak Once And Think Twice [0:05:01.47]
09. Midnight Jump [0:04:06.00]
10. Patience Like Job [0:04:08.30]
Лог создания рипа
Exact Audio Copy V1.0 beta 1 from 15. November 2010
EAC extraction logfile from 28. July 2013, 11:12
Sunnyland Slim / Be Careful How You Vote
Used drive : PLEXTOR DVDR PX-891SA Adapter: 4 ID: 1
Read mode : Secure
Utilize accurate stream : Yes
Defeat audio cache : Yes
Make use of C2 pointers : No
Read offset correction : 6
Overread into Lead-In and Lead-Out : No
Fill up missing offset samples with silence : Yes
Delete leading and trailing silent blocks : No
Null samples used in CRC calculations : Yes
Used interface : Native Win32 interface for Win NT & 2000
Gap handling : Appended to previous track
Used output format : User Defined Encoder
Selected bitrate : 128 kBit/s
Quality : High
Add ID3 tag : No
Command line compressor : D:\Exact Audio Copy\Flac\flac.exe
Additional command line options : -8 -V -T "ARTIST=%a" -T "TITLE=%t" -T "ALBUM=%g" -T "DATE=%y" -T "TRACKNUMBER=%n" -T "TOTALTRACKS=%x" -T "GENRE=%m" -T "ALBUMARTIST=%v" -T "ALBUM ARTIST=%v" -T "COMMENT=EAC Secure Mode, Test & Copy, AccurateRip, FLAC -8" %s
TOC of the extracted CD
Track | Start | Length | Start sector | End sector
---------------------------------------------------------
1 | 0:00.00 | 4:40.00 | 0 | 20999
2 | 4:40.00 | 3:08.00 | 21000 | 35099
3 | 7:48.00 | 3:47.73 | 35100 | 52197
4 | 11:35.73 | 4:13.02 | 52198 | 71174
5 | 15:49.00 | 4:48.18 | 71175 | 92792
6 | 20:37.18 | 3:35.50 | 92793 | 108967
7 | 24:12.68 | 3:48.05 | 108968 | 126072
8 | 28:00.73 | 5:01.47 | 126073 | 148694
9 | 33:02.45 | 4:06.00 | 148695 | 167144
10 | 37:08.45 | 4:08.30 | 167145 | 185774
Track 1
Filename D:\01 - You Can't Have It All.wav
Pre-gap length 0:00:02.00
Peak level 85.7 %
Extraction speed 5.4 X
Track quality 100.0 %
Test CRC 5EB025BC
Copy CRC 5EB025BC
Track not present in AccurateRip database
Copy OK
Track 2
Filename D:\02 - Workin' Two Jobs.wav
Pre-gap length 0:00:01.00
Peak level 81.4 %
Extraction speed 5.7 X
Track quality 100.0 %
Test CRC D1DDA24E
Copy CRC D1DDA24E
Track not present in AccurateRip database
Copy OK
Track 3
Filename D:\03 - Have A Good Day Now.wav
Pre-gap length 0:00:01.00
Peak level 70.9 %
Extraction speed 6.3 X
Track quality 100.0 %
Test CRC F543891D
Copy CRC F543891D
Track not present in AccurateRip database
Copy OK
Track 4
Filename D:\04 - Chicago Jump.wav
Pre-gap length 0:00:01.00
Peak level 70.6 %
Extraction speed 5.7 X
Track quality 99.9 %
Test CRC E71E2B14
Copy CRC E71E2B14
Track not present in AccurateRip database
Copy OK
Track 5
Filename D:\05 - Past Life.wav
Pre-gap length 0:00:01.00
Peak level 57.6 %
Extraction speed 6.4 X
Track quality 99.9 %
Test CRC 02B37F34
Copy CRC 02B37F34
Track not present in AccurateRip database
Copy OK
Track 6
Filename D:\06 - Be Careful How You Vote.wav
Pre-gap length 0:00:01.00
Peak level 61.0 %
Extraction speed 7.8 X
Track quality 100.0 %
Test CRC 843A6685
Copy CRC 843A6685
Track not present in AccurateRip database
Copy OK
Track 7
Filename D:\07 - Johnson Machine Gun.wav
Pre-gap length 0:00:01.00
Peak level 83.2 %
Extraction speed 8.2 X
Track quality 100.0 %
Test CRC 474894C2
Copy CRC 474894C2
Track not present in AccurateRip database
Copy OK
Track 8
Filename D:\08 - Speak Once And Think Twice.wav
Pre-gap length 0:00:01.00
Peak level 67.5 %
Extraction speed 8.8 X
Track quality 100.0 %
Test CRC 355C2BF0
Copy CRC 355C2BF0
Track not present in AccurateRip database
Copy OK
Track 9
Filename D:\09 - Midnight Jump.wav
Pre-gap length 0:00:01.00
Peak level 71.0 %
Extraction speed 9.1 X
Track quality 100.0 %
Test CRC FA18F6BA
Copy CRC FA18F6BA
Track not present in AccurateRip database
Copy OK
Track 10
Filename D:\10 - Patience Like Job.wav
Pre-gap length 0:00:01.00
Peak level 88.6 %
Extraction speed 7.7 X
Track quality 99.9 %
Test CRC 6C1A6E1D
Copy CRC 6C1A6E1D
Track not present in AccurateRip database
Copy OK
None of the tracks are present in the AccurateRip database
No errors occurred
End of status report
==== Log checksum F07F3858F7D0265C7CA3568368FE86D645332ED768041D3D8125EF3D20DC29F3 ====
Содержание индексной карты (.CUE)
REM GENRE Blues
REM DATE 1989
REM DISCID 8909AD0A
REM COMMENT "ExactAudioCopy v1.0b1"
PERFORMER "Sunnyland Slim"
TITLE "Be Careful How You Vote"
FILE "01 - You Can't Have It All.wav" WAVE
TRACK 01 AUDIO
TITLE "You Can't Have It All"
PERFORMER "Sunnyland Slim"
INDEX 01 00:00:00
TRACK 02 AUDIO
TITLE "Workin' Two Jobs"
PERFORMER "Sunnyland Slim"
INDEX 00 04:39:00
FILE "02 - Workin' Two Jobs.wav" WAVE
INDEX 01 00:00:00
TRACK 03 AUDIO
TITLE "Have A Good Day Now"
PERFORMER "Sunnyland Slim"
INDEX 00 03:07:00
FILE "03 - Have A Good Day Now.wav" WAVE
INDEX 01 00:00:00
TRACK 04 AUDIO
TITLE "Chicago Jump"
PERFORMER "Sunnyland Slim"
INDEX 00 03:46:73
FILE "04 - Chicago Jump.wav" WAVE
INDEX 01 00:00:00
TRACK 05 AUDIO
TITLE "Past Life"
PERFORMER "Sunnyland Slim"
INDEX 00 04:12:02
FILE "05 - Past Life.wav" WAVE
INDEX 01 00:00:00
TRACK 06 AUDIO
TITLE "Be Careful How You Vote"
PERFORMER "Sunnyland Slim"
INDEX 00 04:47:18
FILE "06 - Be Careful How You Vote.wav" WAVE
INDEX 01 00:00:00
TRACK 07 AUDIO
TITLE "Johnson Machine Gun"
PERFORMER "Sunnyland Slim"
INDEX 00 03:34:50
FILE "07 - Johnson Machine Gun.wav" WAVE
INDEX 01 00:00:00
TRACK 08 AUDIO
TITLE "Speak Once And Think Twice"
PERFORMER "Sunnyland Slim"
INDEX 00 03:47:05
FILE "08 - Speak Once And Think Twice.wav" WAVE
INDEX 01 00:00:00
TRACK 09 AUDIO
TITLE "Midnight Jump"
PERFORMER "Sunnyland Slim"
INDEX 00 05:00:47
FILE "09 - Midnight Jump.wav" WAVE
INDEX 01 00:00:00
TRACK 10 AUDIO
TITLE "Patience Like Job"
PERFORMER "Sunnyland Slim"
INDEX 00 04:05:00
FILE "10 - Patience Like Job.wav" WAVE
INDEX 01 00:00:00
Sunnyland Slim в разделе
Download
Для скачивания .torrent файлов необходима регистрация
Сайт не распространяет и не хранит электронные версии произведений, а лишь предоставляет доступ к создаваемому пользователями каталогу ссылок на торрент-файлы, которые содержат только списки хеш-сумм
[Профиль]  [ЛС] 

рмх222

VIP (Заслуженный)

Стаж: 11 лет 2 месяца

Сообщений: 9259

рмх222 · 19-Авг-13 14:13 (спустя 18 часов)

[Цитировать] 

Ай какая конфетка!!!!!!!!!!!!!!
Слушаю плющусь
Smal_AV
Спасибо большое!!!!!!!
[Профиль]  [ЛС] 

simbolPS

Top Seed 04* 320r

Стаж: 8 лет 9 месяцев

Сообщений: 1465

simbolPS · 20-Авг-13 07:43 (спустя 17 часов)

[Цитировать] 

Спасибо
Personnel:
Sunnyland Slim (vocals, piano);
Eddie Taylor, Hubert Sumlin, Lurrie Bell,Magic Slim (guitar);
Sam Burckhardt (tenor saxophone);
Beau Biley (trombone); Eddie Lusk (organ);
Hasson Miah, Mickey Martin, Fred Grady, Chico Chism (drums).
[Профиль]  [ЛС] 
 
Ответить
Loading...
Error