(Electric Chicago Blues, Piano Blues) Sunnyland Slim - She Got A Thing Goin' On - 1998, FLAC (tracks+.cue), lossless

Страницы:  1

Ответить
Автор
Сообщение

Smal_AV

Стаж: 9 лет 11 месяцев

Сообщений: 1609

Smal_AV · 27-Июл-13 20:01 (5 лет 4 месяца назад, ред. 27-Июл-13 20:02)

Sunnyland Slim / She Got A Thing Goin' On
Жанр: Electric Chicago Blues, Piano Blues
Страна-производитель диска: USA
Год издания: 1998
Издатель (лейбл): Earwig Music Company, Inc.
Аудиокодек: FLAC (*.flac)
Тип рипа: tracks+.cue
Битрейт аудио: lossless
Продолжительность: 44:34
Источник (релизер): Smal_AV
Наличие сканов в содержимом раздачи: да
Треклист:
01. She Got a Thing Goin' On [0:02:30.66]
02. Sad and Evil Woman [0:02:32.25]
03. Long Tall Daddy [0:03:54.08]
04. Rockin' My Blues Away [0:02:45.38]
05. Bus Station Blues [0:05:04.10]
06. Tryin' To Make a Living [0:03:04.47]
07. See My Lawyer [0:02:46.22]
08. Darling, Yes, I Love You [0:05:41.48]
09. Feel Like Stroking [0:03:56.05]
10. Goin' Down Slow [0:03:23.59]
11. Big Time Operator [0:02:09.15]
12. Done You Wrong [0:03:24.59]
13. She Got That Jive [0:02:33.69]
14. Black Cat Cross My Trail [0:04:40.00]
Лог создания рипа
Exact Audio Copy V1.0 beta 1 from 15. November 2010
EAC extraction logfile from 25. July 2013, 16:33
Sunnyland Slim / She Got A Thing Goin' On
Used drive : PLEXTOR DVDR PX-891SA Adapter: 7 ID: 0
Read mode : Secure
Utilize accurate stream : Yes
Defeat audio cache : Yes
Make use of C2 pointers : No
Read offset correction : 6
Overread into Lead-In and Lead-Out : No
Fill up missing offset samples with silence : Yes
Delete leading and trailing silent blocks : No
Null samples used in CRC calculations : Yes
Used interface : Native Win32 interface for Win NT & 2000
Gap handling : Appended to previous track
Used output format : User Defined Encoder
Selected bitrate : 128 kBit/s
Quality : High
Add ID3 tag : No
Command line compressor : D:\Exact Audio Copy\Flac\flac.exe
Additional command line options : -8 -V -T "ARTIST=%a" -T "TITLE=%t" -T "ALBUM=%g" -T "DATE=%y" -T "TRACKNUMBER=%n" -T "TOTALTRACKS=%x" -T "GENRE=%m" -T "ALBUMARTIST=%v" -T "ALBUM ARTIST=%v" -T "COMMENT=EAC Secure Mode, Test & Copy, AccurateRip, FLAC -8" %s
TOC of the extracted CD
Track | Start | Length | Start sector | End sector
---------------------------------------------------------
1 | 0:00.00 | 2:30.66 | 0 | 11315
2 | 2:30.66 | 2:32.25 | 11316 | 22740
3 | 5:03.16 | 3:54.08 | 22741 | 40298
4 | 8:57.24 | 2:45.38 | 40299 | 52711
5 | 11:42.62 | 5:04.10 | 52712 | 75521
6 | 16:46.72 | 3:04.47 | 75522 | 89368
7 | 19:51.44 | 2:46.22 | 89369 | 101840
8 | 22:37.66 | 5:41.48 | 101841 | 127463
9 | 28:19.39 | 3:56.05 | 127464 | 145168
10 | 32:15.44 | 3:23.59 | 145169 | 160452
11 | 35:39.28 | 2:09.15 | 160453 | 170142
12 | 37:48.43 | 3:24.59 | 170143 | 185501
13 | 41:13.27 | 2:33.69 | 185502 | 197045
14 | 43:47.21 | 4:40.00 | 197046 | 218045
Track 1
Filename D:\01 - She Got a Thing Goin' On.wav
Pre-gap length 0:00:02.00
Peak level 98.8 %
Extraction speed 4.7 X
Track quality 100.0 %
Test CRC 6063B79F
Copy CRC 6063B79F
Accurately ripped (confidence 3) [E4403DC3]
Copy OK
Track 2
Filename D:\02 - Sad and Evil Woman.wav
Pre-gap length 0:00:01.44
Peak level 98.8 %
Extraction speed 5.1 X
Track quality 100.0 %
Test CRC A227AAB3
Copy CRC A227AAB3
Accurately ripped (confidence 3) [2583F75B]
Copy OK
Track 3
Filename D:\03 - Long Tall Daddy.wav
Pre-gap length 0:00:01.45
Peak level 98.8 %
Extraction speed 4.8 X
Track quality 99.9 %
Test CRC CC9ED4CA
Copy CRC CC9ED4CA
Accurately ripped (confidence 3) [334ED985]
Copy OK
Track 4
Filename D:\04 - Rockin' My Blues Away.wav
Pre-gap length 0:00:01.45
Peak level 98.8 %
Extraction speed 6.0 X
Track quality 100.0 %
Test CRC 8F136EE2
Copy CRC 8F136EE2
Accurately ripped (confidence 3) [116D5650]
Copy OK
Track 5
Filename D:\05 - Bus Station Blues.wav
Pre-gap length 0:00:01.07
Peak level 98.8 %
Extraction speed 7.0 X
Track quality 100.0 %
Test CRC 9F076517
Copy CRC 9F076517
Accurately ripped (confidence 3) [B53A212A]
Copy OK
Track 6
Filename D:\06 - Tryin' To Make a Living.wav
Pre-gap length 0:00:01.44
Peak level 98.8 %
Extraction speed 5.4 X
Track quality 99.9 %
Test CRC 8F0FE8CA
Copy CRC 8F0FE8CA
Accurately ripped (confidence 3) [1310EA8F]
Copy OK
Track 7
Filename D:\07 - See My Lawyer.wav
Pre-gap length 0:00:01.45
Peak level 98.8 %
Extraction speed 7.1 X
Track quality 100.0 %
Test CRC 285159DC
Copy CRC 285159DC
Accurately ripped (confidence 3) [1E33CB29]
Copy OK
Track 8
Filename D:\08 - Darling, Yes, I Love You.wav
Pre-gap length 0:00:01.44
Peak level 98.8 %
Extraction speed 8.2 X
Track quality 100.0 %
Test CRC 8FB58F4E
Copy CRC 8FB58F4E
Accurately ripped (confidence 3) [90F02CFB]
Copy OK
Track 9
Filename D:\09 - Feel Like Stroking.wav
Pre-gap length 0:00:01.44
Peak level 98.8 %
Extraction speed 8.4 X
Track quality 100.0 %
Test CRC 047050BB
Copy CRC 047050BB
Accurately ripped (confidence 3) [5C034B6F]
Copy OK
Track 10
Filename D:\10 - Goin' Down Slow.wav
Pre-gap length 0:00:01.45
Peak level 98.8 %
Extraction speed 8.5 X
Track quality 100.0 %
Test CRC 59060816
Copy CRC 59060816
Accurately ripped (confidence 3) [9265CEBC]
Copy OK
Track 11
Filename D:\11 - Big Time Operator.wav
Pre-gap length 0:00:01.45
Peak level 98.8 %
Extraction speed 7.9 X
Track quality 100.0 %
Test CRC 655D9831
Copy CRC 655D9831
Accurately ripped (confidence 3) [7493F362]
Copy OK
Track 12
Filename D:\12 - Done You Wrong.wav
Pre-gap length 0:00:01.45
Peak level 98.8 %
Extraction speed 9.0 X
Track quality 100.0 %
Test CRC EB4AC7F7
Copy CRC EB4AC7F7
Accurately ripped (confidence 3) [943E8808]
Copy OK
Track 13
Filename D:\13 - She Got That Jive.wav
Pre-gap length 0:00:01.44
Peak level 98.8 %
Extraction speed 8.7 X
Track quality 100.0 %
Test CRC 09578E1D
Copy CRC 09578E1D
Accurately ripped (confidence 3) [3281BBF6]
Copy OK
Track 14
Filename D:\14 - Black Cat Cross My Trail.wav
Pre-gap length 0:00:01.45
Peak level 98.8 %
Extraction speed 9.9 X
Track quality 100.0 %
Test CRC E766DC3A
Copy CRC E766DC3A
Accurately ripped (confidence 3) [675BAEEC]
Copy OK
All tracks accurately ripped
No errors occurred
End of status report
==== Log checksum 35371720BC85FD17694775BA15940E74491B25B677852E72502D8E93E30DC5C0 ====
Содержание индексной карты (.CUE)
REM GENRE Blues
REM DATE 1998
REM DISCID AC0B5B0E
REM COMMENT "ExactAudioCopy v1.0b1"
PERFORMER "Sunnyland Slim"
TITLE "She Got A Thing Goin' On"
FILE "01 - She Got a Thing Goin' On.wav" WAVE
TRACK 01 AUDIO
TITLE "She Got a Thing Goin' On"
PERFORMER "Sunnyland Slim"
FLAGS DCP
INDEX 01 00:00:00
TRACK 02 AUDIO
TITLE "Sad and Evil Woman"
PERFORMER "Sunnyland Slim"
FLAGS DCP
INDEX 00 02:29:22
FILE "02 - Sad and Evil Woman.wav" WAVE
INDEX 01 00:00:00
TRACK 03 AUDIO
TITLE "Long Tall Daddy"
PERFORMER "Sunnyland Slim"
FLAGS DCP
INDEX 00 02:30:55
FILE "03 - Long Tall Daddy.wav" WAVE
INDEX 01 00:00:00
TRACK 04 AUDIO
TITLE "Rockin' My Blues Away"
PERFORMER "Sunnyland Slim"
FLAGS DCP
INDEX 00 03:52:38
FILE "04 - Rockin' My Blues Away.wav" WAVE
INDEX 01 00:00:00
TRACK 05 AUDIO
TITLE "Bus Station Blues"
PERFORMER "Sunnyland Slim"
FLAGS DCP
INDEX 00 02:44:31
FILE "05 - Bus Station Blues.wav" WAVE
INDEX 01 00:00:00
TRACK 06 AUDIO
TITLE "Tryin' To Make a Living"
PERFORMER "Sunnyland Slim"
FLAGS DCP
INDEX 00 05:02:41
FILE "06 - Tryin' To Make a Living.wav" WAVE
INDEX 01 00:00:00
TRACK 07 AUDIO
TITLE "See My Lawyer"
PERFORMER "Sunnyland Slim"
FLAGS DCP
INDEX 00 03:03:02
FILE "07 - See My Lawyer.wav" WAVE
INDEX 01 00:00:00
TRACK 08 AUDIO
TITLE "Darling, Yes, I Love You"
PERFORMER "Sunnyland Slim"
FLAGS DCP
INDEX 00 02:44:53
FILE "08 - Darling, Yes, I Love You.wav" WAVE
INDEX 01 00:00:00
TRACK 09 AUDIO
TITLE "Feel Like Stroking"
PERFORMER "Sunnyland Slim"
FLAGS DCP
INDEX 00 05:40:04
FILE "09 - Feel Like Stroking.wav" WAVE
INDEX 01 00:00:00
TRACK 10 AUDIO
TITLE "Goin' Down Slow"
PERFORMER "Sunnyland Slim"
FLAGS DCP
INDEX 00 03:54:35
FILE "10 - Goin' Down Slow.wav" WAVE
INDEX 01 00:00:00
TRACK 11 AUDIO
TITLE "Big Time Operator"
PERFORMER "Sunnyland Slim"
FLAGS DCP
INDEX 00 03:22:14
FILE "11 - Big Time Operator.wav" WAVE
INDEX 01 00:00:00
TRACK 12 AUDIO
TITLE "Done You Wrong"
PERFORMER "Sunnyland Slim"
FLAGS DCP
INDEX 00 02:07:45
FILE "12 - Done You Wrong.wav" WAVE
INDEX 01 00:00:00
TRACK 13 AUDIO
TITLE "She Got That Jive"
PERFORMER "Sunnyland Slim"
FLAGS DCP
INDEX 00 03:23:15
FILE "13 - She Got That Jive.wav" WAVE
INDEX 01 00:00:00
TRACK 14 AUDIO
TITLE "Black Cat Cross My Trail"
PERFORMER "Sunnyland Slim"
FLAGS DCP
INDEX 00 02:32:24
FILE "14 - Black Cat Cross My Trail.wav" WAVE
INDEX 01 00:00:00
Sunnyland Slim в разделе
Download
Для скачивания .torrent файлов необходима регистрация
Сайт не распространяет и не хранит электронные версии произведений, а лишь предоставляет доступ к создаваемому пользователями каталогу ссылок на торрент-файлы, которые содержат только списки хеш-сумм
[Профиль]  [ЛС] 

jazznblues

Стаж: 10 лет 5 месяцев

Сообщений: 2897

jazznblues · 30-Июл-13 21:17 (спустя 3 дня)

[Цитировать] 

Smal_AV
Этот парень ни в каких отзывах не нуждается... Тем не менее, за раздачу - спасибо!
[Профиль]  [ЛС] 

perilius

Стаж: 8 лет 9 месяцев

Сообщений: 286

perilius · 10-Окт-18 19:34 (спустя 5 лет 2 месяца)

[Цитировать] 

Друзья помогите пожалуйста скачать!
friends please seed!
[Профиль]  [ЛС] 
 
Ответить
Loading...
Error