Восстановление постеров и скриншотов в раздачах

Страницы :   Пред.  1, 2, 3, 4  След.

Ответить
Автор
Сообщение

grandmajor

RG Мультфильмы

Стаж: 9 лет 11 месяцев

Сообщений: 2783

grandmajor · 08-Мар-17 16:24 (1 год 9 месяцев назад)

[Цитировать] 

Nanvel
Спасибо. Готово.
[Профиль]  [ЛС] 

Nanvel

VIP (Заслуженный)

Стаж: 11 лет 3 месяца

Сообщений: 4354

Nanvel · 08-Мар-17 17:51 (спустя 1 час 26 мин.)

[Цитировать] 

http://rutracker.org/forum/viewtopic.php?t=162016
Постер
Код:
http://s014.radikal.ru/i329/1703/21/f21a9d571322.jpg
Скриншоты

http://rutracker.org/forum/viewtopic.php?t=678355
Постер
Код:
http://s014.radikal.ru/i329/1703/21/f21a9d571322.jpg
Скриншоты
[Профиль]  [ЛС] 

grandmajor

RG Мультфильмы

Стаж: 9 лет 11 месяцев

Сообщений: 2783

grandmajor · 08-Мар-17 19:14 (спустя 1 час 23 мин.)

[Цитировать] 

Nanvel
И снова спасибо, сделано.
Только скриншоты лучше в кодах делать, а то их не удобно копировать-вставлять.
[Профиль]  [ЛС] 

DemonikD

Moderator gray

Стаж: 9 лет 7 месяцев

Сообщений: 6154

DemonikD · 16-Мар-17 11:00 (спустя 7 дней, ред. 16-Мар-17 11:00)

[Цитировать] 

http://rutracker.org/forum/viewtopic.php?t=372857
Скриншоты
Код:
[spoiler="Скриншоты"]
[b]Season I[/b]
[URL=http://fastpic.ru/view/90/2017/0316/882b7a435dc0b58c0f2eb8e0425cf8a4.png.html][IMG]http://i90.fastpic.ru/thumb/2017/0316/a4/882b7a435dc0b58c0f2eb8e0425cf8a4.jpeg[/IMG][/URL] [URL=http://fastpic.ru/view/90/2017/0316/627af121c118988a8dd9f2ab1f07a4fe.png.html][IMG]http://i90.fastpic.ru/thumb/2017/0316/fe/627af121c118988a8dd9f2ab1f07a4fe.jpeg[/IMG][/URL] [URL=http://fastpic.ru/view/90/2017/0316/f110f07ad6f56478e56bc44adefad5da.png.html][IMG]http://i90.fastpic.ru/thumb/2017/0316/da/f110f07ad6f56478e56bc44adefad5da.jpeg[/IMG][/URL] [URL=http://fastpic.ru/view/90/2017/0316/7b8efab754ead0e2a50ad5be5320d9c4.png.html][IMG]http://i90.fastpic.ru/thumb/2017/0316/c4/7b8efab754ead0e2a50ad5be5320d9c4.jpeg[/IMG][/URL][hr]
[b]Season II[/b]
[URL=http://fastpic.ru/view/91/2017/0316/4bfe6b2830323a65e2129950d7bc5162.png.html][IMG]http://i91.fastpic.ru/thumb/2017/0316/62/4bfe6b2830323a65e2129950d7bc5162.jpeg[/IMG][/URL] [URL=http://fastpic.ru/view/91/2017/0316/68a75d2c484e2cc4d9c5c603aec55101.png.html][IMG]http://i91.fastpic.ru/thumb/2017/0316/01/68a75d2c484e2cc4d9c5c603aec55101.jpeg[/IMG][/URL] [URL=http://fastpic.ru/view/91/2017/0316/92f04e60a039e3cda6f4321cbd3a45ec.png.html][IMG]http://i91.fastpic.ru/thumb/2017/0316/ec/92f04e60a039e3cda6f4321cbd3a45ec.jpeg[/IMG][/URL] [URL=http://fastpic.ru/view/91/2017/0316/0ad1a8039fcec2f0b3c09388772817fa.png.html][IMG]http://i91.fastpic.ru/thumb/2017/0316/fa/0ad1a8039fcec2f0b3c09388772817fa.jpeg[/IMG][/URL][hr]
[b]Season III[/b]
[URL=http://fastpic.ru/view/91/2017/0316/d7738b6835f930aff9143d781b949699.png.html][IMG]http://i91.fastpic.ru/thumb/2017/0316/99/d7738b6835f930aff9143d781b949699.jpeg[/IMG][/URL] [URL=http://fastpic.ru/view/91/2017/0316/921a6a02d56641c7af67c64ec376235b.png.html][IMG]http://i91.fastpic.ru/thumb/2017/0316/5b/921a6a02d56641c7af67c64ec376235b.jpeg[/IMG][/URL] [URL=http://fastpic.ru/view/91/2017/0316/233747eff05da145a144a404d62c316b.png.html][IMG]http://i91.fastpic.ru/thumb/2017/0316/6b/233747eff05da145a144a404d62c316b.jpeg[/IMG][/URL] [URL=http://fastpic.ru/view/91/2017/0316/32f14809ae8888e5c3a2655dc02f48e3.png.html][IMG]http://i91.fastpic.ru/thumb/2017/0316/e3/32f14809ae8888e5c3a2655dc02f48e3.jpeg[/IMG][/URL][hr]
[b]Season IV[/b]
[URL=http://fastpic.ru/view/89/2017/0316/0bbe237ae31018f26f37a85dc13c15d1.png.html][IMG]http://i89.fastpic.ru/thumb/2017/0316/d1/0bbe237ae31018f26f37a85dc13c15d1.jpeg[/IMG][/URL] [URL=http://fastpic.ru/view/89/2017/0316/4ac174ae45f62967408819f1fc1a27be.png.html][IMG]http://i89.fastpic.ru/thumb/2017/0316/be/4ac174ae45f62967408819f1fc1a27be.jpeg[/IMG][/URL] [URL=http://fastpic.ru/view/89/2017/0316/13188f85185c64a8dec42ccafc689b4f.png.html][IMG]http://i89.fastpic.ru/thumb/2017/0316/4f/13188f85185c64a8dec42ccafc689b4f.jpeg[/IMG][/URL] [URL=http://fastpic.ru/view/89/2017/0316/8cdfd7ab644efbb426df3c74c1bf68f6.png.html][IMG]http://i89.fastpic.ru/thumb/2017/0316/f6/8cdfd7ab644efbb426df3c74c1bf68f6.jpeg[/IMG][/URL]
[/spoiler]

http://rutracker.org/forum/viewtopic.php?t=1861603
скриншоты
Код:
[spoiler="Скриншоты"]
[b]Season I[/b]
[URL=http://fastpic.ru/view/91/2017/0316/8792b3100be57bf37d1ff955fd34a3a9.png.html][IMG]http://i91.fastpic.ru/thumb/2017/0316/a9/8792b3100be57bf37d1ff955fd34a3a9.jpeg[/IMG][/URL] [URL=http://fastpic.ru/view/91/2017/0316/26ea945284b4560750cd58fc664f12c1.png.html][IMG]http://i91.fastpic.ru/thumb/2017/0316/c1/26ea945284b4560750cd58fc664f12c1.jpeg[/IMG][/URL] [URL=http://fastpic.ru/view/91/2017/0316/a11bddde12b8ee2d41c75c46518c4275.png.html][IMG]http://i91.fastpic.ru/thumb/2017/0316/75/a11bddde12b8ee2d41c75c46518c4275.jpeg[/IMG][/URL] [URL=http://fastpic.ru/view/91/2017/0316/32d9b594630e67aa3639071c3f8fcc7f.png.html][IMG]http://i91.fastpic.ru/thumb/2017/0316/7f/32d9b594630e67aa3639071c3f8fcc7f.jpeg[/IMG][/URL][hr]
[b]Season II[/b]
[URL=http://fastpic.ru/view/90/2017/0316/3a909025b1883ed84a00107814e9eccc.png.html][IMG]http://i90.fastpic.ru/thumb/2017/0316/cc/3a909025b1883ed84a00107814e9eccc.jpeg[/IMG][/URL] [URL=http://fastpic.ru/view/90/2017/0316/eab7217d6a6f977c9589a4b3facc1b4c.png.html][IMG]http://i90.fastpic.ru/thumb/2017/0316/4c/eab7217d6a6f977c9589a4b3facc1b4c.jpeg[/IMG][/URL] [URL=http://fastpic.ru/view/90/2017/0316/79c54bda6f3cde9bee2c608edf162277.png.html][IMG]http://i90.fastpic.ru/thumb/2017/0316/77/79c54bda6f3cde9bee2c608edf162277.jpeg[/IMG][/URL] [URL=http://fastpic.ru/view/90/2017/0316/77acd3cca92d938129ac0df3fe3614e1.png.html][IMG]http://i90.fastpic.ru/thumb/2017/0316/e1/77acd3cca92d938129ac0df3fe3614e1.jpeg[/IMG][/URL][hr]
[b]Season III[/b]
[URL=http://fastpic.ru/view/91/2017/0316/cd18638c931c28ade303de7ca198df86.png.html][IMG]http://i91.fastpic.ru/thumb/2017/0316/86/cd18638c931c28ade303de7ca198df86.jpeg[/IMG][/URL] [URL=http://fastpic.ru/view/91/2017/0316/26d70b8879d57939484682ac216d3a7b.png.html][IMG]http://i91.fastpic.ru/thumb/2017/0316/7b/26d70b8879d57939484682ac216d3a7b.jpeg[/IMG][/URL] [URL=http://fastpic.ru/view/91/2017/0316/bc654c22991cce90963feafedccea3e4.png.html][IMG]http://i91.fastpic.ru/thumb/2017/0316/e4/bc654c22991cce90963feafedccea3e4.jpeg[/IMG][/URL] [URL=http://fastpic.ru/view/91/2017/0316/8a8914ceef53995247f920304be5211b.png.html][IMG]http://i91.fastpic.ru/thumb/2017/0316/1b/8a8914ceef53995247f920304be5211b.jpeg[/IMG][/URL][hr]
[b]Season IV[/b]
[URL=http://fastpic.ru/view/90/2017/0316/7504dd4d7f4b785e3ad90cf5d086d94e.png.html][IMG]http://i90.fastpic.ru/thumb/2017/0316/4e/7504dd4d7f4b785e3ad90cf5d086d94e.jpeg[/IMG][/URL] [URL=http://fastpic.ru/view/90/2017/0316/13ac703a88d5ec02ed28c8cb749743ed.png.html][IMG]http://i90.fastpic.ru/thumb/2017/0316/ed/13ac703a88d5ec02ed28c8cb749743ed.jpeg[/IMG][/URL] [URL=http://fastpic.ru/view/90/2017/0316/77d602db992426f5582a05c44a37e8f1.png.html][IMG]http://i90.fastpic.ru/thumb/2017/0316/f1/77d602db992426f5582a05c44a37e8f1.jpeg[/IMG][/URL] [URL=http://fastpic.ru/view/90/2017/0316/96440f549036dd16110a0e13c50beb36.png.html][IMG]http://i90.fastpic.ru/thumb/2017/0316/36/96440f549036dd16110a0e13c50beb36.jpeg[/IMG][/URL]
[/spoiler]

Бонус:
сравнение раздач:
Файлы первых 3 сезонов идентичны (по хэшу). (сравнил первые серии каждого сезона)
4 сезон: http://screenshotcomparison.com/comparison/203603/ (озвучка идентична)
[Профиль]  [ЛС] 

grandmajor

RG Мультфильмы

Стаж: 9 лет 11 месяцев

Сообщений: 2783

grandmajor · 17-Мар-17 13:48 (спустя 1 день 2 часа)

[Цитировать] 

DemonikD
Скриншоты восстановлены в обоих раздачах. Спасибо.
На счет частичной идентичности раздач постараемся разобраться, целесообразно ли будет поглощение, поскольку ТВрипы скорее всего являлись исходником звука для DVDRip-ов. А исходники не поглощаются.
[Профиль]  [ЛС] 

Kyon99

Top Seed 02* 80r

Стаж: 6 лет 8 месяцев

Сообщений: 917

Kyon99 · 27-Мар-17 11:51 (спустя 9 дней)

[Цитировать] 

Плоский Мир: Вещие сестрички, Роковая музыка / Terry Pratchett's Discworld: Wyrd Sisters & Soul Music
скрытый текст
постер для Wyrd Sisters:
Код:
http://i73.fastpic.ru/big/2016/0305/c2/cde7f72059e9b6056113e7ffe70de7c2.jpg
постер для Soul Music:
Код:
http://i74.fastpic.ru/big/2016/0305/ce/b207e4de6475aca472d6b4972186e0ce.jpg
скриншоты Wyrd Sisters:
Код:
[url=http://i89.fastpic.ru/big/2017/0327/06/166abe39ab6d59ca2688cb26ea0bb406.png][img]http://i89.fastpic.ru/thumb/2017/0327/06/166abe39ab6d59ca2688cb26ea0bb406.jpeg[/img][/url]  [url=http://i90.fastpic.ru/big/2017/0327/fb/e94fdb2b105beb1d46b1fdd36c1c66fb.png][img]http://i90.fastpic.ru/thumb/2017/0327/fb/e94fdb2b105beb1d46b1fdd36c1c66fb.jpeg[/img][/url]  [url=http://i91.fastpic.ru/big/2017/0327/23/2ce390b0f8b8156cabf06be7f7c22723.png][img]http://i91.fastpic.ru/thumb/2017/0327/23/2ce390b0f8b8156cabf06be7f7c22723.jpeg[/img][/url]  [url=http://i91.fastpic.ru/big/2017/0327/24/3f557b335376f6a0b29dee5788d0bc24.png][img]http://i91.fastpic.ru/thumb/2017/0327/24/3f557b335376f6a0b29dee5788d0bc24.jpeg[/img][/url]  [url=http://i89.fastpic.ru/big/2017/0327/80/f55145d1ee8c7734f6575f23291ecc80.png][img]http://i89.fastpic.ru/thumb/2017/0327/80/f55145d1ee8c7734f6575f23291ecc80.jpeg[/img][/url]
скриншоты Soul Music:
Код:
[url=http://i91.fastpic.ru/big/2017/0327/92/d7349e007b582ed9f2cc5324bff8a492.png][img]http://i91.fastpic.ru/thumb/2017/0327/92/d7349e007b582ed9f2cc5324bff8a492.jpeg[/img][/url]  [url=http://i89.fastpic.ru/big/2017/0327/25/8a34b99cf6c24bfcb87c8bb0be38b725.png][img]http://i89.fastpic.ru/thumb/2017/0327/25/8a34b99cf6c24bfcb87c8bb0be38b725.jpeg[/img][/url]  [url=http://i89.fastpic.ru/big/2017/0327/b6/5c116443b087167d24988d2b933343b6.png][img]http://i89.fastpic.ru/thumb/2017/0327/b6/5c116443b087167d24988d2b933343b6.jpeg[/img][/url]  [url=http://i90.fastpic.ru/big/2017/0327/94/25a572e44152573230ec08781595d794.png][img]http://i90.fastpic.ru/thumb/2017/0327/94/25a572e44152573230ec08781595d794.jpeg[/img][/url]  [url=http://i91.fastpic.ru/big/2017/0327/d1/67612750a066c3ca7fef865e17bb00d1.png][img]http://i91.fastpic.ru/thumb/2017/0327/d1/67612750a066c3ca7fef865e17bb00d1.jpeg[/img][/url]
MediaInfo Wyrd Sisters
Общее
Полное имя : Discworld\Wyrd Sisters\01 Wyrd Sisters.avi
Формат : AVI
Формат/Информация : Audio Video Interleave
Размер файла : 260 Мбайт
Продолжительность : 24 м.
Режим общего битрейта : Переменный
Общий поток : 1496 Кбит/сек
Программа кодирования : VirtualDubMod 1.5.4.1 (build 2178/release)
Библиотека кодирования : VirtualDubMod build 2178/release
Видео
Идентификатор : 0
Формат : MPEG-4 Visual
Параметр BVOP формата : 1
Параметр QPel формата : Нет
Параметр GMC формата : Без точки перехода
Параметр матрицы формата : Default (H.263)
Режим смешивания : Сжатый битовый поток
Идентификатор кодека : DX50
Идентификатор кодека/Подсказка : DivX 5
Продолжительность : 24 м.
Битрейт : 1378 Кбит/сек
Ширина : 640 пикселей
Высота : 480 пикселей
Соотношение сторон : 4:3
Частота кадров : 25,000 кадров/сек
Цветовое пространство : YUV
Субдискретизация насыщенности : 4:2:0
Битовая глубина : 8 бит
Тип развёртки : Прогрессивная
Метод сжатия : С потерями
Бит/(Пиксели*Кадры) : 0.179
Размер потока : 239 Мбайт (92%)
Библиотека кодирования : DivX 6.8.2 (UTC 2008-05-17)
Аудио
Идентификатор : 1
Формат : MPEG Audio
Версия формата : Version 1
Профиль формата : Layer 3
Режим : Joint stereo
Расширение режима : MS Stereo
Идентификатор кодека : 55
Идентификатор кодека/Подсказка : MP3
Продолжительность : 24 м.
Вид битрейта : Переменный
Битрейт : 106 Кбит/сек
Номинальный битрейт : 128 Кбит/сек
Каналы : 2 канала
Частота : 48,0 КГц
Метод сжатия : С потерями
Размер потока : 18,4 Мбайт (7%)
Выравнивание : Соединение по промежуткам
Продолжительность промежутка : 24 мс. (0,60 видеокадр)
Время предзагрузки промежутка : 500 мс.
Библиотека кодирования : LAME3.97
Настройки программы : -m j -V 4 -q 2 -lowpass 17 --abr 128
MediaInfo Soul Music
Общее
Полное имя : Discworld\Soul Music\01 Soul Music.avi
Формат : AVI
Формат/Информация : Audio Video Interleave
Размер файла : 260 Мбайт
Продолжительность : 24 м.
Общий поток : 1501 Кбит/сек
Программа кодирования : VirtualDubMod 1.5.10.2 (build 2540/release)
Библиотека кодирования : VirtualDubMod build 2540/release
Видео
Идентификатор : 0
Формат : MPEG-4 Visual
Профиль формата : Advanced [email protected]
Параметр BVOP формата : 1
Параметр QPel формата : Нет
Параметр GMC формата : Без точки перехода
Параметр матрицы формата : Выборочная
Идентификатор кодека : XVID
Идентификатор кодека/Подсказка : XviD
Продолжительность : 24 м.
Битрейт : 1363 Кбит/сек
Ширина : 640 пикселей
Высота : 480 пикселей
Соотношение сторон : 4:3
Частота кадров : 25,000 кадров/сек
Цветовое пространство : YUV
Субдискретизация насыщенности : 4:2:0
Битовая глубина : 8 бит
Тип развёртки : Прогрессивная
Метод сжатия : С потерями
Бит/(Пиксели*Кадры) : 0.177
Размер потока : 236 Мбайт (91%)
Библиотека кодирования : XviD 1.2.0.dev47 (UTC 2006-11-01)
Аудио
Идентификатор : 1
Формат : MPEG Audio
Версия формата : Version 1
Профиль формата : Layer 3
Режим : Joint stereo
Расширение режима : MS Stereo
Идентификатор кодека : 55
Идентификатор кодека/Подсказка : MP3
Продолжительность : 24 м.
Вид битрейта : Постоянный
Битрейт : 128 Кбит/сек
Каналы : 2 канала
Частота : 48,0 КГц
Метод сжатия : С потерями
Размер потока : 22,2 Мбайт (9%)
Выравнивание : Соединение по промежуткам
Продолжительность промежутка : 40 мс. (1,00 видеокадр)
Время предзагрузки промежутка : 504 мс.
[Профиль]  [ЛС] 

grandmajor

RG Мультфильмы

Стаж: 9 лет 11 месяцев

Сообщений: 2783

grandmajor · 27-Мар-17 21:18 (спустя 9 часов)

[Цитировать] 

Kyon99
Спасибо, готово.
[Профиль]  [ЛС] 

Kyon99

Top Seed 02* 80r

Стаж: 6 лет 8 месяцев

Сообщений: 917

Kyon99 · 03-Апр-17 11:11 (спустя 6 дней)

[Цитировать] 

Бивис и Батхед делают рождество / Beavis and Butt-Head Do Christmas
скрытый текст
Скриншоты:
Код:
[url=http://i89.fastpic.ru/big/2017/0403/38/b4f2592ea4d824ecc028b4211a72a938.png][img]http://i89.fastpic.ru/thumb/2017/0403/38/b4f2592ea4d824ecc028b4211a72a938.jpeg[/img][/url]  [url=http://i91.fastpic.ru/big/2017/0403/49/db1627451a3031782baca22fe24dc449.png][img]http://i91.fastpic.ru/thumb/2017/0403/8c/db8a4b2432fbd7fda7ee09b2c704728c.jpeg[/img][/url]  [url=http://i90.fastpic.ru/big/2017/0403/9c/abc3a2d85776b89cf494208084b01e9c.png][img]http://i90.fastpic.ru/thumb/2017/0403/9c/abc3a2d85776b89cf494208084b01e9c.jpeg[/img][/url]  [url=http://i91.fastpic.ru/big/2017/0403/08/b35b3c6cf064622fc92c18d58bd18e08.png][img]http://i91.fastpic.ru/thumb/2017/0403/08/b35b3c6cf064622fc92c18d58bd18e08.jpeg[/img][/url]
MediaInfo
Общее
Полное имя : Beavis & Butt-head Do Christmas.avi
Формат : AVI
Формат/Информация : Audio Video Interleave
Размер файла : 715 Мбайт
Продолжительность : 45 м.
Общий поток : 2216 Кбит/сек
Программа кодирования : VirtualDubMod 1.5.10.2 (build 2540/release)
Библиотека кодирования : VirtualDubMod build 2540/release
Видео
Идентификатор : 0
Формат : MPEG-4 Visual
Параметр BVOP формата : 1
Параметр QPel формата : Нет
Параметр GMC формата : 2 точки перехода
Параметр матрицы формата : Default (H.263)
Режим смешивания : Сжатый битовый поток
Идентификатор кодека : DX50
Идентификатор кодека/Подсказка : DivX 5
Продолжительность : 45 м.
Битрейт : 1946 Кбит/сек
Ширина : 576 пикселей
Высота : 432 пикселя
Соотношение сторон : 4:3
Частота кадров : 23,976 кадра/сек
Цветовое пространство : YUV
Субдискретизация насыщенности : 4:2:0
Битовая глубина : 8 бит
Тип развёртки : Прогрессивная
Метод сжатия : С потерями
Бит/(Пиксели*Кадры) : 0.326
Размер потока : 628 Мбайт (88%)
Библиотека кодирования : DivX 5.0.2 (UTC 2002-05-16)
Аудио #1
Идентификатор : 1
Формат : MPEG Audio
Версия формата : Version 1
Профиль формата : Layer 3
Режим : Joint stereo
Расширение режима : MS Stereo
Идентификатор кодека : 55
Идентификатор кодека/Подсказка : MP3
Продолжительность : 45 м.
Вид битрейта : Постоянный
Битрейт : 128 Кбит/сек
Каналы : 2 канала
Частота : 48,0 КГц
Метод сжатия : С потерями
Задержка видео : 18 мс.
Размер потока : 41,3 Мбайт (6%)
Выравнивание : Разделение по промежуткам
Продолжительность промежутка : 42 мс. (1,00 видеокадр)
Время предзагрузки промежутка : 500 мс.
Аудио #2
Идентификатор : 2
Формат : MPEG Audio
Версия формата : Version 1
Профиль формата : Layer 3
Режим : Joint stereo
Расширение режима : MS Stereo
Идентификатор кодека : 55
Идентификатор кодека/Подсказка : MP3
Продолжительность : 45 м.
Вид битрейта : Постоянный
Битрейт : 128 Кбит/сек
Каналы : 2 канала
Частота : 48,0 КГц
Метод сжатия : С потерями
Задержка видео : 18 мс.
Размер потока : 41,3 Мбайт (6%)
Выравнивание : Разделение по промежуткам
Продолжительность промежутка : 42 мс. (1,00 видеокадр)
Время предзагрузки промежутка : 500 мс.
[Профиль]  [ЛС] 

grandmajor

RG Мультфильмы

Стаж: 9 лет 11 месяцев

Сообщений: 2783

grandmajor · 03-Апр-17 13:15 (спустя 2 часа 3 мин.)

[Цитировать] 

Kyon99
Спасибо, готово.
[Профиль]  [ЛС] 

DemonikD

Moderator gray

Стаж: 9 лет 7 месяцев

Сообщений: 6154

DemonikD · 07-Дек-17 13:07 (спустя 8 месяцев)

[Цитировать] 

New Captain Scarlet / Новый капитан Скарлет / 1 и 2 сезоны [2005, Action, Боевик, Фантастика, DVDRip]
постер:
Код:
[img]http://i102.fastpic.ru/big/2017/1207/59/ab972aadc5a7316bcdcf04ef1c822759.png[/img]
[Профиль]  [ЛС] 

grandmajor

RG Мультфильмы

Стаж: 9 лет 11 месяцев

Сообщений: 2783

grandmajor · 08-Дек-17 21:19 (спустя 1 день 8 часов)

[Цитировать] 

DemonikD
Спасибо, готово.
[Профиль]  [ЛС] 

ShenRau

Top Loader 01* 100GB

Стаж: 1 год 10 месяцев

Сообщений: 2589

ShenRau · 14-Янв-18 08:42 (спустя 1 месяц 5 дней)

[Цитировать] 

http://rutracker.org/forum/viewtopic.php?t=614966
В этой раздаче баннер стороннего ресурса вшит в видеоряд.
скрытый текст
Скрины с 9ой серии 1го сезона.
[Профиль]  [ЛС] 

DemonikD

Moderator gray

Стаж: 9 лет 7 месяцев

Сообщений: 6154

DemonikD · 15-Фев-18 08:33 (спустя 1 месяц)

[Цитировать] 

скрытый текст
http://rutracker.org/forum/viewtopic.php?t=5166405
скриншоты:
Код:
[URL=http://fastpic.ru/view/101/2018/0215/41e8c681326781b20b0cb6b6889b8a25.png.html][IMG]http://i101.fastpic.ru/thumb/2018/0215/25/41e8c681326781b20b0cb6b6889b8a25.jpeg[/IMG][/URL] [URL=http://fastpic.ru/view/101/2018/0215/a682d6dc6e357eb9c2214faae8bb3fec.png.html][IMG]http://i101.fastpic.ru/thumb/2018/0215/ec/a682d6dc6e357eb9c2214faae8bb3fec.jpeg[/IMG][/URL] [URL=http://fastpic.ru/view/101/2018/0215/ecdf95f528806a2ff9540d351b2ec6a9.png.html][IMG]http://i101.fastpic.ru/thumb/2018/0215/a9/ecdf95f528806a2ff9540d351b2ec6a9.jpeg[/IMG][/URL] [URL=http://fastpic.ru/view/101/2018/0215/d54a977227e457431231b2308350d5ec.png.html][IMG]http://i101.fastpic.ru/thumb/2018/0215/ec/d54a977227e457431231b2308350d5ec.jpeg[/IMG][/URL] [URL=http://fastpic.ru/view/101/2018/0215/6c6ee6cbd6af1b00f65b23bf3e7fda34.png.html][IMG]http://i101.fastpic.ru/thumb/2018/0215/34/6c6ee6cbd6af1b00f65b23bf3e7fda34.jpeg[/IMG][/URL]
[Профиль]  [ЛС] 

SergeZuich

Moderator

Стаж: 7 лет 8 месяцев

Сообщений: 3183

SergeZuich · 15-Фев-18 12:33 (спустя 4 часа)

[Цитировать] 

DemonikD
Большое Спасибо! Готово.
[Профиль]  [ЛС] 

Kyon99

Top Seed 02* 80r

Стаж: 6 лет 8 месяцев

Сообщений: 917

Kyon99 · 28-Фев-18 08:27 (спустя 12 дней)

[Цитировать] 

Приключения Тимона и Пумбы / Timon and Pumbaa
скрытый текст
постер:
Код:
http://i85.fastpic.ru/big/2016/0928/a3/24a03e1185308d96e909573ef842c2a3.jpg
скрины:
Код:
[url=http://i100.fastpic.ru/big/2018/0228/e2/f43521664a8480343ecdae3a39146ce2.png][img]http://i101.fastpic.ru/big/2018/0228/87/7caf7af7b7c1dad1d1b5bf00bd3cd387.png[/img][/url]  [url=http://i101.fastpic.ru/big/2018/0228/f8/2c223ef83a3e4a761c44c76483bcb1f8.png][img]http://i100.fastpic.ru/big/2018/0228/ba/07f4532400d2113ef334af9bbb8d97ba.png[/img][/url]  [url=http://i103.fastpic.ru/big/2018/0228/0d/6c1ca92b99a439ba546d6b9638481d0d.png][img]http://i99.fastpic.ru/big/2018/0228/34/7c9af8799954be58f497144f1b1d4334.png[/img][/url]  [url=http://i102.fastpic.ru/big/2018/0228/83/f7d3256c2c6cf8a0668356070ea59883.png][img]http://i103.fastpic.ru/big/2018/0228/99/20a16f6deb3182407c6a35d4e6e9ab99.png[/img][/url]
[url=http://i101.fastpic.ru/big/2018/0228/89/f729087e8df903f44b688381da555289.png][img]http://i99.fastpic.ru/big/2018/0228/d8/5b9b15d2b6707367743e07878827efd8.png[/img][/url]  [url=http://i103.fastpic.ru/big/2018/0228/38/2a302b3a0a9c6ef4e2c5637688106d38.png][img]http://i99.fastpic.ru/big/2018/0228/9a/25249d1070e19481e0a9a9d6975fd09a.png[/img][/url]  [url=http://i99.fastpic.ru/big/2018/0228/18/1084f07d7da9a797d39510e6dbf91c18.png][img]http://i99.fastpic.ru/big/2018/0228/84/7e980968aa3087c36fc73f00b8f0c084.png[/img][/url]  [url=http://i101.fastpic.ru/big/2018/0228/68/2505da0b9c76fd79d3f0a0111bfe4a68.png][img]http://i101.fastpic.ru/big/2018/0228/7f/ee30ef9709d2581a813c30f7c3c4797f.png[/img][/url]
техданные:
Подробные технические данные
Общее
Полное имя : Timon Pumba\Season 1\s1e01 - Boara Boara. Saskatchewan Catch.avi
Формат : AVI
Формат/Информация : Audio Video Interleave
Размер файла : 249 Мбайт
Продолжительность : 28 м.
Общий поток : 1219 Кбит/сек
Программа кодирования : VirtualDubMod 1.5.10.2 (build 2540/release)
Библиотека кодирования : VirtualDubMod build 2540/release
Видео
Идентификатор : 0
Формат : MPEG-4 Visual
Профиль формата : Advanced [email protected]
Параметр BVOP формата : 2
Параметр QPel формата : Нет
Параметр GMC формата : Без точки перехода
Параметр матрицы формата : Выборочная
Режим смешивания : Сжатый битовый поток
Идентификатор кодека : XVID
Идентификатор кодека/Подсказка : XviD
Продолжительность : 28 м.
Битрейт : 1081 Кбит/сек
Ширина : 640 пикселей
Высота : 480 пикселей
Соотношение сторон : 4:3
Частота кадров : 25,000 кадров/сек
Цветовое пространство : YUV
Субдискретизация насыщенности : 4:2:0
Битовая глубина : 8 бит
Тип развёртки : Прогрессивная
Метод сжатия : С потерями
Бит/(Пиксели*Кадры) : 0.141
Размер потока : 221 Мбайт (89%)
Библиотека кодирования : XviD 1.2.0.dev47 (UTC 2006-11-01)
Аудио
Идентификатор : 1
Формат : MPEG Audio
Версия формата : Version 1
Профиль формата : Layer 3
Идентификатор кодека : 55
Идентификатор кодека/Подсказка : MP3
Продолжительность : 28 м.
Вид битрейта : Постоянный
Битрейт : 128 Кбит/сек
Каналы : 2 канала
Частота : 48,0 КГц
Метод сжатия : С потерями
Размер потока : 26,2 Мбайт (11%)
Выравнивание : Соединение по промежуткам
Продолжительность промежутка : 40 мс. (1,00 видеокадр)
Время предзагрузки промежутка : 504 мс.
[Профиль]  [ЛС] 

Kyon99

Top Seed 02* 80r

Стаж: 6 лет 8 месяцев

Сообщений: 917

Kyon99 · 03-Мар-18 16:56 (спустя 3 дня)

[Цитировать] 

Чиполлино
скрытый текст
Скриншоты:
Код:
[url=http://i100.fastpic.ru/big/2018/0303/06/c68aaa7acc353bf5dcb3f65e6b996e06.png][img]http://i103.fastpic.ru/big/2018/0303/b7/bf7636cc0f98daf864ea91a55bf8c0b7.png[/img][/url]  [url=http://i102.fastpic.ru/big/2018/0303/bc/0f5b75a05e0ecfe1f738b0132f297cbc.png][img]http://i100.fastpic.ru/big/2018/0303/23/7b3f65ff851b4d9e04af4ff0acfc1223.png[/img][/url]  [url=http://i103.fastpic.ru/big/2018/0303/82/797f93e5a227539d23a2ceec3b374782.png][img]http://i102.fastpic.ru/big/2018/0303/b7/df8b8532f8d3820724e78b3edfab17b7.png[/img][/url]  [url=http://i103.fastpic.ru/big/2018/0303/f5/9d31b5e0173893f708d5da837a6110f5.png][img]http://i103.fastpic.ru/big/2018/0303/c8/cad73c72e661b52629b70aea6b0e70c8.png[/img][/url]
[url=http://i101.fastpic.ru/big/2018/0303/c3/773ccea9ed2bda8df6bd28f76debe2c3.png][img]http://i103.fastpic.ru/big/2018/0303/24/780ff628a0a80d26b211b3ab1a58d524.png[/img][/url]  [url=http://i103.fastpic.ru/big/2018/0303/99/d2c86f5d2da6828fcf8483ffbe899899.png][img]http://i103.fastpic.ru/big/2018/0303/68/0804445c94f8034888f852b725ee5668.png[/img][/url]  [url=http://i100.fastpic.ru/big/2018/0303/94/b87c98469c77941e02294573f8618a94.png][img]http://i99.fastpic.ru/big/2018/0303/97/6c340bc549c833d5dc617de5f3210a97.png[/img][/url]  [url=http://i101.fastpic.ru/big/2018/0303/f6/1fd513a887a1268e2d66389d20fe42f6.png][img]http://i101.fastpic.ru/big/2018/0303/ed/36ced6502dc95e2b1c6e6ae7a05e25ed.png[/img][/url]
[Профиль]  [ЛС] 

grandmajor

RG Мультфильмы

Стаж: 9 лет 11 месяцев

Сообщений: 2783

grandmajor · 03-Мар-18 21:33 (спустя 4 часа)

[Цитировать] 

Kyon99
Спасибо, готово.
[Профиль]  [ЛС] 

Nanvel

VIP (Заслуженный)

Стаж: 11 лет 3 месяца

Сообщений: 4354

Nanvel · 03-Апр-18 19:35 (спустя 30 дней)

[Цитировать] 

скрытый текст
http://rutracker.org/forum/viewtopic.php?t=3705741
Скрины
Код:
[url=https://c.radikal.ru/c11/1804/db/f624c9286108.png][img]https://c.radikal.ru/c11/1804/db/f624c9286108t.jpg[/img][/url][url=https://b.radikal.ru/b07/1804/fb/c4a07396af47.png][img]https://b.radikal.ru/b07/1804/fb/c4a07396af47t.jpg[/img][/url]
[url=https://b.radikal.ru/b16/1804/55/578b0bb3990d.png][img]https://b.radikal.ru/b16/1804/55/578b0bb3990dt.jpg[/img][/url][url=https://c.radikal.ru/c38/1804/3e/370a82f03935.png][img]https://c.radikal.ru/c38/1804/3e/370a82f03935t.jpg[/img][/url]
[url=https://a.radikal.ru/a41/1804/9e/32ba28f3e706.png][img]https://a.radikal.ru/a41/1804/9e/32ba28f3e706t.jpg[/img][/url][url=https://c.radikal.ru/c40/1804/13/90f6c92a8a27.png][img]https://c.radikal.ru/c40/1804/13/90f6c92a8a27t.jpg[/img][/url]
[url=https://d.radikal.ru/d43/1804/ee/81d0da29b9aa.png][img]https://d.radikal.ru/d43/1804/ee/81d0da29b9aat.jpg[/img][/url][url=https://c.radikal.ru/c11/1804/99/93f8309d9137.png][img]https://c.radikal.ru/c11/1804/99/93f8309d9137t.jpg[/img][/url]
[Профиль]  [ЛС] 

grandmajor

RG Мультфильмы

Стаж: 9 лет 11 месяцев

Сообщений: 2783

grandmajor · 03-Апр-18 19:40 (спустя 5 мин.)

[Цитировать] 

Nanvel
Спасибо, готово.
[Профиль]  [ЛС] 

Nanvel

VIP (Заслуженный)

Стаж: 11 лет 3 месяца

Сообщений: 4354

Nanvel · 14-Май-18 20:53 (спустя 1 месяц 11 дней)

[Цитировать] 

скрытый текст
Скрины для
http://rutracker.org/forum/viewtopic.php?t=3487638
Код:
[url=https://c.radikal.ru/c14/1805/a7/b8abee34356f.png][img]https://c.radikal.ru/c14/1805/a7/b8abee34356ft.jpg[/img][/url][url=https://a.radikal.ru/a20/1805/9b/7cc10d7ccd94.png][img]https://a.radikal.ru/a20/1805/9b/7cc10d7ccd94t.jpg[/img][/url][url=https://b.radikal.ru/b29/1805/46/fca60eaca527.png][img]https://b.radikal.ru/b29/1805/46/fca60eaca527t.jpg[/img][/url][url=https://b.radikal.ru/b17/1805/89/57b56b472397.png][img]https://b.radikal.ru/b17/1805/89/57b56b472397t.jpg[/img][/url][url=https://d.radikal.ru/d16/1805/0d/beb6aa448a91.png][img]https://d.radikal.ru/d16/1805/0d/beb6aa448a91t.jpg[/img][/url][url=https://b.radikal.ru/b09/1805/05/f1ae02276510.png][img]https://b.radikal.ru/b09/1805/05/f1ae02276510t.jpg[/img][/url][url=https://c.radikal.ru/c32/1805/75/170a2fc58783.png][img]https://c.radikal.ru/c32/1805/75/170a2fc58783t.jpg[/img][/url][url=https://b.radikal.ru/b06/1805/b8/723ab0ca33b9.png][img]https://b.radikal.ru/b06/1805/b8/723ab0ca33b9t.jpg[/img][/url]
[Профиль]  [ЛС] 

grandmajor

RG Мультфильмы

Стаж: 9 лет 11 месяцев

Сообщений: 2783

grandmajor · 14-Май-18 21:02 (спустя 9 мин.)

[Цитировать] 

Nanvel
Спасибо, готово.
[Профиль]  [ЛС] 

клм-фтс

Стаж: 8 лет 5 месяцев

Сообщений: 115

клм-фтс · 17-Май-18 05:49 (спустя 2 дня 8 часов, ред. 26-Июл-18 14:01)

[Цитировать] 

скрытый текст
Царь Горы / King of The Hill / Сезон: 1 / Серии: 1-12 из 12 (Майк Джадж, Грег Дэниелс / Mike Judge, Greg Daniels) [1997, анимация, комедия, DVDRip AVC] MVO + Original + ENG Sub
Царь Горы / King of The Hill / Сезон: 1 / Серии: 1-10, 13 из 13 (Майк Джадж, Грег Дэниелс / Mike Judge, Greg Daniels) [1997, анимация, комедия, DVDRip AVC] MVO (ТВЦ) + Original + ENG Sub
[Профиль]  [ЛС] 

клм-фтс

Стаж: 8 лет 5 месяцев

Сообщений: 115

клм-фтс · 26-Июл-18 03:03 (спустя 2 месяца 8 дней)

[Цитировать] 

скрытый текст
Царь Горы Сезон 1 / King of the Hill Season 1 (Mike Judge, Greg Daniels) [1997, Семейный, анимация, комедия, DVDRip]
Царь Горы / King of the Hill / Сезон 1 / Серии 1-13 из 13 (Mike Judge, Greg Daniels) [1997, Семейный, анимация, комедия, DVDRip] VO (Гоблин) + MVO (ТВЦ) + Original (ENG)
скрытый текст
Код:
[URL=https://imageban.ru/show/2018/07/26/d1b0b76001e1f1dd315d03492b61f86e/jpg][IMG]http://i3.imageban.ru/thumbs/2018.07.26/d1b0b76001e1f1dd315d03492b61f86e.jpg[/IMG][/URL][URL=https://imageban.ru/show/2018/07/26/596a086db9a3a01008c44cd885069757/jpg][IMG]http://i6.imageban.ru/thumbs/2018.07.26/596a086db9a3a01008c44cd885069757.jpg[/IMG][/URL][URL=https://imageban.ru/show/2018/07/26/1f148a2fa73d547584bf83380393b1c6/jpg][IMG]http://i3.imageban.ru/thumbs/2018.07.26/1f148a2fa73d547584bf83380393b1c6.jpg[/IMG][/URL][URL=https://imageban.ru/show/2018/07/26/6fbfa468f0e53040c9a921a1c7029aee/jpg][IMG]http://i6.imageban.ru/thumbs/2018.07.26/6fbfa468f0e53040c9a921a1c7029aee.jpg[/IMG][/URL]
[URL=https://imageban.ru/show/2018/07/26/753c02e4946d7f98081ad70b9cc794e7/jpg][IMG]http://i6.imageban.ru/thumbs/2018.07.26/753c02e4946d7f98081ad70b9cc794e7.jpg[/IMG][/URL][URL=https://imageban.ru/show/2018/07/26/e9deac962bed29c171057cf1992a7dd2/jpg][IMG]http://i5.imageban.ru/thumbs/2018.07.26/e9deac962bed29c171057cf1992a7dd2.jpg[/IMG][/URL][URL=https://imageban.ru/show/2018/07/26/d7fddea28845e529edce6d38dcc6e497/jpg][IMG]http://i3.imageban.ru/thumbs/2018.07.26/d7fddea28845e529edce6d38dcc6e497.jpg[/IMG][/URL][URL=https://imageban.ru/show/2018/07/26/d907221e317a9b827e3b801c13dca927/jpg][IMG]http://i5.imageban.ru/thumbs/2018.07.26/d907221e317a9b827e3b801c13dca927.jpg[/IMG][/URL]
MediaInfo
Код:
General
Complete name               : T:\King of the Hill - Season 01\110 Keeping Up with Our Joneses (DVDRip, Goblin, TVC).avi
Format                      : AVI
Format/Info                 : Audio Video Interleave
File size                   : 167 MiB
Duration                    : 22 min 16 s
Overall bit rate            : 1 047 kb/s
Writing application         : VirtualDubModRus 1.5.10.2 (build 2542/release)
Writing library             : VirtualDubMod build 2542/release
Video
ID                          : 0
Format                      : MPEG-4 Visual
Format profile              : [email protected]
Format settings, BVOP       : No
Format settings, QPel       : No
Format settings, GMC        : No warppoints
Format settings, Matrix     : Default (H.263)
Codec ID                    : XVID
Codec ID/Hint               : XviD
Duration                    : 22 min 16 s
Bit rate                    : 644 kb/s
Width                       : 624 pixels
Height                      : 480 pixels
Display aspect ratio        : 4:3
Frame rate                  : 23.976 (24000/1001) FPS
Color space                 : YUV
Chroma subsampling          : 4:2:0
Bit depth                   : 8 bits
Scan type                   : Progressive
Compression mode            : Lossy
Bits/(Pixel*Frame)          : 0.090
Stream size                 : 103 MiB (62%)
Writing library             : XviD 1.1.0 Beta2 (UTC 2005-04-04)
Audio #1
ID                          : 1
Format                      : MPEG Audio
Format version              : Version 1
Format profile              : Layer 3
Format settings             : Joint stereo / MS Stereo
Codec ID                    : 55
Codec ID/Hint               : MP3
Duration                    : 22 min 16 s
Bit rate mode               : Constant
Bit rate                    : 128 kb/s
Channel(s)                  : 2 channels
Sampling rate               : 48.0 kHz
Frame rate                  : 41.667 FPS (1152 SPF)
Compression mode            : Lossy
Stream size                 : 20.4 MiB (12%)
Alignment                   : Aligned on interleaves
Interleave, duration        : 42  ms (1.00 video frame)
Interleave, preload duratio : 504  ms
Writing library             : LAME3.97
Encoding settings           : -m j -V 4 -q 2 -lowpass 18 -b 128
Audio #2
ID                          : 2
Format                      : MPEG Audio
Format version              : Version 1
Format profile              : Layer 3
Format settings             : Joint stereo / MS Stereo
Codec ID                    : 55
Codec ID/Hint               : MP3
Duration                    : 22 min 16 s
Bit rate mode               : Constant
Bit rate                    : 128 kb/s
Channel(s)                  : 2 channels
Sampling rate               : 48.0 kHz
Compression mode            : Lossy
Stream size                 : 20.4 MiB (12%)
Alignment                   : Aligned on interleaves
Interleave, duration        : 42  ms (1.00 video frame)
Interleave, preload duratio : 504  ms
Writing library             : LAME3.96.1
Audio #3
ID                          : 3
Format                      : MPEG Audio
Format version              : Version 1
Format profile              : Layer 3
Format settings             : Joint stereo / MS Stereo
Codec ID                    : 55
Codec ID/Hint               : MP3
Duration                    : 22 min 16 s
Bit rate mode               : Constant
Bit rate                    : 128 kb/s
Channel(s)                  : 2 channels
Sampling rate               : 44.1 kHz
Compression mode            : Lossy
Delay relative to video     : 26 ms
Stream size                 : 20.4 MiB (12%)
Alignment                   : Split accross interleaves
Interleave, duration        : 42  ms (1.00 video frame)
Interleave, preload duratio : 500  ms
Writing library             : LAME3.96.1
[Профиль]  [ЛС] 

grandmajor

RG Мультфильмы

Стаж: 9 лет 11 месяцев

Сообщений: 2783

grandmajor · 09-Авг-18 20:08 (спустя 14 дней)

[Цитировать] 

клм-фтс
Спасибо, готово
[Профиль]  [ЛС] 

komm zu mir

Помощник модератора

Стаж: 10 лет 10 месяцев

Сообщений: 4069

komm zu mir · 17-Сен-18 22:01 (спустя 1 месяц 8 дней)

[Цитировать] 

Сделано
Код:
[img=right]http://s017.radikal.ru/i437/1609/c5/04fffcdc1908.jpg[/img]
http://rutracker.org/forum/viewtopic.php?t=2327484
[Профиль]  [ЛС] 

komm zu mir

Помощник модератора

Стаж: 10 лет 10 месяцев

Сообщений: 4069

komm zu mir · 21-Сен-18 06:44 (спустя 3 дня, ред. 21-Сен-18 06:44)

[Цитировать] 

Сделано необходимое и возможное
https://en.wikipedia.org/wiki/List_of_Doc_McStuffins_episodes#Season_3_.282015.E2.80.9316.29
http://rutracker.org/forum/viewtopic.php?t=4872020
http://rutracker.org/forum/viewtopic.php?t=4865672
сезон 2, а не 3


http://rutracker.org/forum/viewtopic.php?t=1780125
Код:
[img=right]http://i101.fastpic.ru/big/2018/0921/b1/0ef6917dd9d447ab021695824fb345b1.jpg[/img]

http://rutracker.org/forum/viewtopic.php?t=399628
http://rutracker.org/forum/viewtopic.php?t=948758
http://rutracker.org/forum/viewtopic.php?t=959359
http://rutracker.org/forum/viewtopic.php?t=811961
http://rutracker.org/forum/viewtopic.php?t=2425586
http://rutracker.org/forum/viewtopic.php?t=4348168
Код:
[img=right]http://i100.fastpic.ru/big/2018/0921/bc/c5411930be01641eaf2de43f019bd8bc.jpg[/img]

http://rutracker.org/forum/viewtopic.php?t=4299450
забыли перевод названия указать: Расплющенный космос
указано: Улетный TRIP
в других раздачах: Улетный трип


http://rutracker.org/forum/viewtopic.php?t=3720092
http://rutracker.org/forum/viewtopic.php?t=4501027
Код:
[img=right]http://i99.fastpic.ru/big/2018/0921/32/_40250e8361175ef3c798e41125d22532.png[/img]
[Профиль]  [ЛС] 

komm zu mir

Помощник модератора

Стаж: 10 лет 10 месяцев

Сообщений: 4069

komm zu mir · 09-Окт-18 20:46 (спустя 18 дней, ред. 02-Окт-18 13:34)

[Цитировать] 

[Профиль]  [ЛС] 

komm zu mir

Помощник модератора

Стаж: 10 лет 10 месяцев

Сообщений: 4069

komm zu mir · 24-Окт-18 22:14 (спустя 15 дней, ред. 15-Окт-18 05:55)

[Цитировать] 

готово
Код:
[img=right]http://i96.fastpic.ru/big/2017/0621/c1/daa89b5d5e412f05e746df3fe7b2e8c1.jpg[/img]
http://rutracker.org/forum/viewtopic.php?t=1045898
http://rutracker.org/forum/viewtopic.php?t=860452

Код:
[img=right]http://i3.fastpic.ru/big/2009/1023/7c/d3328f7b346df5b8d4f127ac415d1b7c.png[/img]
http://rutracker.org/forum/viewtopic.php?t=2448933
http://rutracker.org/forum/viewtopic.php?t=2455426
Там ещё число сезонов и общее число серий не указаны
[Профиль]  [ЛС] 

Nanvel

VIP (Заслуженный)

Стаж: 11 лет 3 месяца

Сообщений: 4354

Nanvel · 25-Окт-18 22:27 (спустя 1 день)

[Цитировать] 

скрытый текст
http://rutracker.org/forum/viewtopic.php?t=3866862
скрины
Код:
[URL=http://fastpic.ru/view/93/2018/1025/_58822a3ad25681e30a52ca66b48fe966.png.html][IMG]http://i93.fastpic.ru/thumb/2018/1025/66/_58822a3ad25681e30a52ca66b48fe966.jpeg[/IMG][/URL] [URL=http://fastpic.ru/view/93/2018/1025/b6066949eb59ab5a2d0a835e756a8dd6.png.html][IMG]http://i93.fastpic.ru/thumb/2018/1025/d6/b6066949eb59ab5a2d0a835e756a8dd6.jpeg[/IMG][/URL] [URL=http://fastpic.ru/view/93/2018/1025/_7faf4da81e81826891b6ca601d9acf52.png.html][IMG]http://i93.fastpic.ru/thumb/2018/1025/52/_7faf4da81e81826891b6ca601d9acf52.jpeg[/IMG][/URL] [URL=http://fastpic.ru/view/93/2018/1025/ee9bbaf90848cb464149179a287a2154.png.html][IMG]http://i93.fastpic.ru/thumb/2018/1025/54/ee9bbaf90848cb464149179a287a2154.jpeg[/IMG][/URL] [URL=http://fastpic.ru/view/93/2018/1025/c6c49bd4817a7f289a82b92faf834b1e.png.html][IMG]http://i93.fastpic.ru/thumb/2018/1025/1e/c6c49bd4817a7f289a82b92faf834b1e.jpeg[/IMG][/URL]
[Профиль]  [ЛС] 

ShenRau

Top Loader 01* 100GB

Стаж: 1 год 10 месяцев

Сообщений: 2589

ShenRau · 28-Окт-18 14:33 (спустя 2 дня 16 часов)

[Цитировать] 

[Профиль]  [ЛС] 
 
Ответить
Loading...
Error