(Downtempo, New Age, Meditative, Ambient, Enigmatic, Trance) [CD, Web] Delerium - Дискография - 1989-2016, 110 релизов (103 CD, 17 веб-релизов) - FLAC (image+.cue, tracks) lossless

Страницы :   Пред.  1, 2, 3, 4, 5, 6, 7

Ответить
Автор
Сообщение

cres007

Стаж: 3 года 9 месяцев

Сообщений: 20


cres007 · 20-Ноя-17 23:54 (1 год 2 месяца назад, ред. 20-Ноя-17 23:54)

[Цитировать] 

hexonut, большое спасибо за такую полную раздачу Delerium, только вот в папке Singles 20xx/2012-Days Turn Into Nights/2012-Days Turn Into Nights Seven Lions Remix [Nettwerk, US, N0003234DIG, Web] у Вас лежит один *nfo-файл с картинками, а flac'a нет.
UPD: прочитал комментарий в списке синглов об идентичности этого трека другому релизу, просьбу снимаю. Еще раз большое спасибо.
[Профиль]  [ЛС] 

Maxxxx130

Стаж: 10 лет 11 месяцев

Сообщений: 176

Maxxxx130 · 22-Ноя-17 11:35 (спустя 1 день 11 часов)

[Цитировать] 

Спасибо!
[Профиль]  [ЛС] 

tyler4jc

Стаж: 8 лет 11 месяцев

Сообщений: 25


tyler4jc · 30-Мар-18 23:56 (спустя 4 месяца 8 дней, ред. 30-Мар-18 23:56)

[Цитировать] 

скажите, пожалуйста, почему теперь нельзя вашу старую сборку дополнить этой? помню, что качал именно этот релиз пару лет назад, но торрент теперь совершенно другой! папки похожие, но не совсем те же самые... и вместо только новых альбомов качаются остальные
все, разобрался) спасибо, "подсобили", конечно) оказывается, просто вставили теперь полное название альбомов, а не только версию..... теперь надо чистить, и скачивать выборочно...)))) спасибо за релиз)
[Профиль]  [ЛС] 

NiqhTcLup

Стаж: 10 месяцев

Сообщений: 2

NiqhTcLup · 12-Апр-18 23:28 (спустя 12 дней)

[Цитировать] 

thx
[Профиль]  [ЛС] 

molbertivanovich

Стаж: 11 лет

Сообщений: 7


molbertivanovich · 24-Июл-18 13:07 (спустя 3 месяца 11 дней)

[Цитировать] 

Подскажите кто-нибудь. Deleriuml Female Vocal Collection где скачать возможно. Не могу найти. СПС
[Профиль]  [ЛС] 

Olaf der Weisse

Moderator

Стаж: 10 лет

Сообщений: 4036

Olaf der Weisse · 24-Июл-18 14:11 (спустя 1 час 4 мин.)

[Цитировать] 

"Мифологию" только недавно слушать начал. Душевно признателен! Показалась интереснее предыдущего альбома.
Прямо, как старые! Типа "Кармы" и "Поэмы".
Китаянка особенно порадовала.
[Профиль]  [ЛС] 

Биомеханик

Top Bonus 07* 100TB

Стаж: 11 лет 8 месяцев

Сообщений: 3045

Биомеханик · 11-Авг-18 19:07 (спустя 18 дней)

[Цитировать] 

Pre-order: https://delerium-official.bandcamp.com/album/stay
[Профиль]  [ЛС] 

gahandavid

Стаж: 8 лет 9 месяцев

Сообщений: 644

gahandavid · 26-Авг-18 21:46 (спустя 15 дней)

[Цитировать] 

на задней части диска переиздания Spiritial Archives не указана 5 песня Barren Ground (07:33). Вот это ляп
[Профиль]  [ЛС] 

Биомеханик

Top Bonus 07* 100TB

Стаж: 11 лет 8 месяцев

Сообщений: 3045

Биомеханик · 26-Авг-18 22:04 (спустя 17 мин.)

[Цитировать] 

gahandavid писал(а):
75866652Вот это ляп
Не в первый раз
[Профиль]  [ЛС] 

iigor2808

Стаж: 8 лет 6 месяцев

Сообщений: 2


iigor2808 · 02-Сен-18 22:13 (спустя 7 дней)

[Цитировать] 

Спасибо!Раздача у меня зажата до нуля,всегда была зажата,т.к.пользуюсь модемом со скоростью 4 мб,других безлимитов у нас нет,это я про бан...
[Профиль]  [ЛС] 

als.f

Стаж: 5 лет 10 месяцев

Сообщений: 325

als.f · 01-Окт-18 14:31 (спустя 28 дней)

[Цитировать] 

Проект жутко отстающий по звуку: альбомы 90х звучат как начало 80х, альбомы нулевых как начало 90х))
[Профиль]  [ЛС] 

SILVERGUN

Стаж: 10 лет 3 месяца

Сообщений: 137

SILVERGUN · 21-Янв-19 09:27 (спустя 3 месяца 19 дней, ред. 21-Янв-19 09:27)

[Цитировать] 

1997-Stone Tower [Cleopatra, US, CLP 9937-2] - напутано с названиями треков в .cue
правильный .cue
REM GENRE Electronic
REM DATE 1991
REM DISCID 9C0F2E0A
REM COMMENT "ExactAudioCopy v0.99pb4"
CATALOG 0000000000000
PERFORMER "Delerium"
TITLE "Stone Tower"
FILE "Stone Tower Reissue.flac" WAVE
TRACK 01 AUDIO
TITLE "Lost Passion"
PERFORMER "Delerium"
INDEX 00 00:00:00
INDEX 01 00:00:50
TRACK 02 AUDIO
TITLE "Bleeding"
PERFORMER "Delerium"
INDEX 00 08:30:37
INDEX 01 08:32:25
TRACK 03 AUDIO
TITLE "Stone Tower"
PERFORMER "Delerium"
INDEX 00 16:32:20
INDEX 01 16:34:37
TRACK 04 AUDIO
TITLE "Aftermath"
PERFORMER "Delerium"
INDEX 00 21:24:55
INDEX 01 21:27:07
TRACK 05 AUDIO
TITLE "Tundra"
PERFORMER "Delerium"
INDEX 00 28:37:00
INDEX 01 28:39:12
TRACK 06 AUDIO
TITLE "Spirit"
PERFORMER "Delerium"
INDEX 00 37:34:52
INDEX 01 37:37:15
TRACK 07 AUDIO
TITLE "Red Hill"
PERFORMER "Delerium"
INDEX 00 42:58:57
INDEX 01 43:00:47
TRACK 08 AUDIO
TITLE "Sphere"
PERFORMER "Delerium"
INDEX 00 49:19:10
INDEX 01 49:21:22
TRACK 09 AUDIO
TITLE "Relics"
PERFORMER "Delerium"
INDEX 00 55:14:00
INDEX 01 55:15:65
TRACK 10 AUDIO
TITLE "Embryo (bonus track)"
PERFORMER "Delerium"
INDEX 00 60:25:65
INDEX 01 60:27:25
[Профиль]  [ЛС] 

Olaf der Weisse

Moderator

Стаж: 10 лет

Сообщений: 4036

Olaf der Weisse · 11-Фев-19 02:17 (спустя 20 дней)

[Цитировать] 

Биомеханик писал(а):
Ну-ну...
Dead Can Dance новый заказал по предзаказу в начале сентября, должен был появиться 2 ноября, отправили 24 октября и хрен чего пришло!
16 фунтов вернули, заказал за 10 сейчас. Неужто, вновь кинут? Dead Can Dance в любом виде кидать ну никак! Это ж святое!
Впрочем, ни на почту, ни на поставщиков последние годы пожаловаться не могу.
[Профиль]  [ЛС] 

Биомеханик

Top Bonus 07* 100TB

Стаж: 11 лет 8 месяцев

Сообщений: 3045

Биомеханик · 11-Фев-19 12:28 (спустя 10 часов, ред. 11-Фев-19 12:28)

[Цитировать] 

Olaf der Weisse писал(а):
76844524Ну-ну...
Хм: "released August 17, 2018"
А, кстати, при чем тут DCD?
[Профиль]  [ЛС] 
 
Ответить
Loading...
Error