(New Age / Solo Piano) George Winston - Summer - 1991, FLAC (tracks+.cue), lossless

Страницы:  1

Ответить
Автор
Сообщение

Bretzl

Стаж: 9 лет 9 месяцев

Сообщений: 60

Bretzl · 24-Окт-08 23:24 (9 лет 8 месяцев назад, ред. 28-Дек-10 02:02)

George Winston - Summer
Жанр: New Age / Solo Piano
Год выпуска диска: 1991
Аудио кодек: FLAC
Тип рипа: tracks+.cue
Битрейт аудио: lossless
Продолжительность: 57'19"
Трэклист:
01. Living in the Country 03:51
02. Loreta and Desireé's Bouquet - Part 1 04:04
03. Loreta and Desireé's Bouquet - Part 2 03:28
04. Fragrant Fields 04:01
05. The Garden 03:06
06. Spring Creek 04:08
07. Lullaby 03:25
08. Black Stallion 03:49
09. Hummingbird 05:07
10. Early Morning Range 02:59
11. Living Without You 06:00
12. Goodbye Montana - Part 1 02:15
13. Corinna, Corinna 04:24
14. Goodbye Montana - Part 2 03:11
15. Where Are You Now 03:23
Отчёт EAC
Exact Audio Copy V0.99 prebeta 4 from 23. January 2008
EAC extraction logfile from 24. October 2008, 21:19
George Winston / Summer
Used drive : HL-DT-STDVDRAM GSA-H10N Adapter: 1 ID: 0
Read mode : Secure
Utilize accurate stream : Yes
Defeat audio cache : Yes
Make use of C2 pointers : No
Read offset correction : 667
Overread into Lead-In and Lead-Out : No
Fill up missing offset samples with silence : Yes
Delete leading and trailing silent blocks : No
Null samples used in CRC calculations : Yes
Used interface : Installed external ASPI interface
Gap handling : Appended to previous track
Used output format : User Defined Encoder
Selected bitrate : 1024 kBit/s
Quality : High
Add ID3 tag : No
Command line compressor : C:\Flac\flac.exe
Additional command line options : -8 -V -T "ARTIST=%a" -T "TITLE=%t" -T "ALBUM=%g" -T "DATE=%y" -T "TRACKNUMBER=%n" -T "TOTALTRACKS=%x" -T "GENRE=%m" -T "COMMENT=%e" %s -o %d
TOC of the extracted CD
Track | Start | Length | Start sector | End sector
---------------------------------------------------------
1 | 0:00.38 | 3:51.72 | 38 | 17434
2 | 3:52.35 | 4:04.33 | 17435 | 35767
3 | 7:56.68 | 3:28.62 | 35768 | 51429
4 | 11:25.55 | 4:01.45 | 51430 | 69549
5 | 15:27.25 | 3:06.68 | 69550 | 83567
6 | 18:34.18 | 4:08.25 | 83568 | 102192
7 | 22:42.43 | 3:25.00 | 102193 | 117567
8 | 26:07.43 | 3:49.32 | 117568 | 134774
9 | 29:57.00 | 5:07.25 | 134775 | 157824
10 | 35:04.25 | 2:59.50 | 157825 | 171299
11 | 38:04.00 | 6:00.65 | 171300 | 198364
12 | 44:04.65 | 2:15.13 | 198365 | 208502
13 | 46:20.03 | 4:24.72 | 208503 | 228374
14 | 50:45.00 | 3:11.10 | 228375 | 242709
15 | 53:56.10 | 3:23.28 | 242710 | 257962
Track 1
Filename D:\Music\George Winston\[1991] Summer\01 - Living in the Country.wav
Pre-gap length 0:00:02.38
Peak level 69.5 %
Track quality 100.0 %
Test CRC 4BD1911B
Copy CRC 4BD1911B
Accurately ripped (confidence 2) [4ADD8BDD]
Copy OK
Track 2
Filename D:\Music\George Winston\[1991] Summer\02 - Loreta and Desireé's Bouquet - Part 1.wav
Pre-gap length 0:00:04.14
Peak level 60.1 %
Track quality 100.0 %
Test CRC 94DB63C2
Copy CRC 94DB63C2
Accurately ripped (confidence 2) [A8E28CC2]
Copy OK
Track 3
Filename D:\Music\George Winston\[1991] Summer\03 - Loreta and Desireé's Bouquet - Part 2.wav
Peak level 84.3 %
Track quality 100.0 %
Test CRC 33B2E924
Copy CRC 33B2E924
Accurately ripped (confidence 2) [961DA30F]
Copy OK
Track 4
Filename D:\Music\George Winston\[1991] Summer\04 - Fragrant Fields.wav
Peak level 92.0 %
Track quality 100.0 %
Test CRC 64CEF8B3
Copy CRC 64CEF8B3
Accurately ripped (confidence 2) [4C40743D]
Copy OK
Track 5
Filename D:\Music\George Winston\[1991] Summer\05 - The Garden.wav
Peak level 59.5 %
Track quality 100.0 %
Test CRC 4E877B5C
Copy CRC 4E877B5C
Accurately ripped (confidence 2) [F79C71CA]
Copy OK
Track 6
Filename D:\Music\George Winston\[1991] Summer\06 - Spring Creek.wav
Pre-gap length 0:00:01.55
Peak level 99.8 %
Track quality 100.0 %
Test CRC 65DB8E6B
Copy CRC 65DB8E6B
Accurately ripped (confidence 2) [9AAD785F]
Copy OK
Track 7
Filename D:\Music\George Winston\[1991] Summer\07 - Lullaby.wav
Pre-gap length 0:00:03.05
Peak level 90.4 %
Track quality 100.0 %
Test CRC 532C1B1B
Copy CRC 532C1B1B
Accurately ripped (confidence 2) [95EBBD69]
Copy OK
Track 8
Filename D:\Music\George Winston\[1991] Summer\08 - Black Stallion.wav
Peak level 65.3 %
Track quality 100.0 %
Test CRC 787B7322
Copy CRC 787B7322
Accurately ripped (confidence 2) [A8492883]
Copy OK
Track 9
Filename D:\Music\George Winston\[1991] Summer\09 - Hummingbird.wav
Pre-gap length 0:00:08.36
Peak level 80.8 %
Track quality 100.0 %
Test CRC 44A1F202
Copy CRC 44A1F202
Accurately ripped (confidence 2) [94FEF4CB]
Copy OK
Track 10
Filename D:\Music\George Winston\[1991] Summer\10 - Early Morning Range.wav
Peak level 81.9 %
Track quality 99.9 %
Test CRC 618D327A
Copy CRC 618D327A
Accurately ripped (confidence 2) [4D496AB1]
Copy OK
Track 11
Filename D:\Music\George Winston\[1991] Summer\11 - Living Without You.wav
Peak level 73.5 %
Track quality 100.0 %
Test CRC BD66739A
Copy CRC BD66739A
Accurately ripped (confidence 2) [9AF6A8AD]
Copy OK
Track 12
Filename D:\Music\George Winston\[1991] Summer\12 - Goodbye Montana - Part 1.wav
Pre-gap length 0:00:02.27
Peak level 60.7 %
Track quality 100.0 %
Test CRC 6B49FF15
Copy CRC 6B49FF15
Accurately ripped (confidence 2) [A0F5C6E4]
Copy OK
Track 13
Filename D:\Music\George Winston\[1991] Summer\13 - Corinna, Corinna.wav
Peak level 80.5 %
Track quality 100.0 %
Test CRC C981C370
Copy CRC C981C370
Accurately ripped (confidence 2) [4ED724FC]
Copy OK
Track 14
Filename D:\Music\George Winston\[1991] Summer\14 - Goodbye Montana - Part 2.wav
Pre-gap length 0:00:01.37
Peak level 84.8 %
Track quality 100.0 %
Test CRC DC054BCD
Copy CRC DC054BCD
Accurately ripped (confidence 2) [86990E88]
Copy OK
Track 15
Filename D:\Music\George Winston\[1991] Summer\15 - Where Are You Now.wav
Peak level 84.3 %
Track quality 100.0 %
Test CRC 305115B2
Copy CRC 305115B2
Accurately ripped (confidence 2) [77C6E5D4]
Copy OK
All tracks accurately ripped
No errors occurred
End of status report
Доп. информация
Liner Notes
George Winston
Summer Special Edition
My solo piano recording, Summer, was released in October of 1991. This album has fifteen pieces by various composers including: Philip Aaberg, Randy Newman, Pete Seeger, Art Lande, Dominic Frontiere, and the late Carmine Coppola, as well as eight pieces I put together.
This album was influenced mainly by Montana, where I spent many years growing up and where I tour every year or two. The single most influential musician for this recording was the great Montana composer pianist, Philip Aaberg, who has three wonderful recordings on Windham Hill: High Plains, Out of the Frame, and Upright
1. Living in the Country 3:45
Composed by Pete Seeger as a solo guitar piece around 1956. The introduction to Living in the Country is a traditional Irish song, Do You Love an Apple, as arranged by Tríona Ni Dhomhnaill and The Bothy Band.
2. Loreta and Desireé’s Bouquet (Part 1) 4:04
3. Loreta and Desireé ’s Bouquet (Part 2) 3:29
4. Fragrant Fields 4:02
By pianist Art Lande from the soundtrack of the children’s story, THE THREE BILLY GOATS’ GRUFF for Rabbit Ears Productions. www.rabbitears.com
5. The Garden 3:03
Two love themes by composer Dominic Frontiere from the soundtrack of the episode, The Guests, from the 1962-1963 science fiction TV series, THE OUTER LIMITS. Some of the music from this series has been issued on the recording THE OUTER LIMITS – ORIGINAL TELEVISION SOUNDTRACK (GNP Crescendo Records).
6. Spring Creek 4:03
By the great Montana pianist Philip Aaberg from his 1985 solo piano recording, HIGH PLAINS (Windham Hill). I have also recorded two other pieces of his: Nevertheless Hello, on my album MONTANA – A LOVE STORY (learned from Phil’s version on his 1987 album OUT OF THE FRAME) and Before Barbed Wire, on my album PLAINS (learned from Phil’s version on OUT OF THE FRAME). I also play live his composition Hill 57, which will be on his upcoming release THE BIG OPEN. His other Montana themed recordings, UPRIGHT, LIVE FROM MONTANA, FIELD NOTES, and his solo piano album of movie themes, CINEMA, have also been very inspirational, as well as all his other wonderful music. www.philipaaberg.com
7. Lullaby 3:25
The epilogue is taken from the song Gypsy Hollow by the great pianist and composer Steve Ferguson.
8. Black Stallion 3:39
By the late composer Carmine Coppola from the 1979 film of the same name.
9. Hummingbird 5:06
The end “humingbird” runs are a right hand technique learned from the great stride pianist Thomas “Fats” Waller, from his 1929 solo piano recording of his composition Numb Fumblin’, and his 1935 band recording of Clarence Williams’ composition Sugar Blues. www.redhotjazz.com/fats. html www.fatswaller.org
10. Early Morning Range 2:59
11. Living Without You 5:58
By the great songwriter/film composer Randy Newman.
12. Goodbye Montana (Part 1) 2:15
13. Corrina, Corrina 4:21
The introduction and arrangement of this traditional piece was inspired partly by the Camp Sunshine Day School in Billings, Montana.
14. Goodbye Montana (Part 2) 3:11
15. Where Are You Now 3:20
All pieces composed or arranged by George Winston except where noted.
Produced by Howard Johnston, Cathy Econom, and George Winston
Engineered by Howard Johnston
Assistant Engineers: Nancy Scharlau and Matt Murman
Mastered by Bernie Grundman at Bernie Grundman Mastering, Hollywood, CA
Cover photography © Larry Ulrich
Art direction by Anne Robinson and Candace Upman
A Dancing Cat Production
Thank you to these musicians for their influence on this recording:
Philip Aaberg
Keola Beamer
Martha Benedict
The late James Booker
Henry Butler
Jon Cleary
Dr. John
The late Vince Guaraldi
John Hartford
Ledward Kaapana
Taj Mahal
Mary McCaslin
The late Professor Longhair
Marcia Wolfe
George Winston - Piano
другие диски:
1982 - George Winston - December
1982 - George Winston - Winter Into Spring
1994 - George Winston - Forest
1996 - George Winston - Linus & Lucy, The Music Of Vince Guaraldi
1999 - George Winston - Plains (Solo Piano)
Download
Для скачивания .torrent файлов необходима регистрация
Сайт не распространяет и не хранит электронные версии произведений, а лишь предоставляет доступ к создаваемому пользователями каталогу ссылок на торрент-файлы, которые содержат только списки хеш-сумм
[Профиль]  [ЛС] 
 
Ответить
Loading...
Error