(New Age / Solo Piano) George Winston - Winter Into Spring - 1982, FLAC (tracks+.cue), lossless

Страницы:  1

Ответить
Автор
Сообщение

Bretzl

Стаж: 10 лет

Сообщений: 60

Bretzl · 24-Окт-08 00:05 (9 лет 11 месяцев назад, ред. 24-Окт-08 23:26)

George Winston - Winter Into Spring
Жанр: New Age / Solo Piano
Год выпуска диска: 1982
Аудио кодек: FLAC
Тип рипа: tracks+.cue
Битрейт аудио: lossless
Продолжительность: 44'32"
Трэклист:
01. January Stars 06:37
02. February Sea 05:19
03. Ocean Waves (O Mar) 07:08
04. Reflection 03:01
05. Rain 10:13
06. Blossom, Meadow 04:11
07. The Venice Dreamer-Introduction 02:18
08. The Venice Dreamer-Part Two 05:42
Отчёт EAC
Exact Audio Copy V0.99 prebeta 3 from 28. July 2007
EAC extraction logfile from 22. October 2008, 21:48
George Winston / Forest
Used drive : PLEXTOR CD-R PX-W4012A Adapter: 1 ID: 0
Read mode : Secure
Utilize accurate stream : Yes
Defeat audio cache : Yes
Make use of C2 pointers : No
Read offset correction : 98
Overread into Lead-In and Lead-Out : No
Fill up missing offset samples with silence : Yes
Delete leading and trailing silent blocks : No
Null samples used in CRC calculations : Yes
Used interface : Native Win32 interface for Win NT & 2000
Gap handling : Appended to previous track
Used output format : User Defined Encoder
Selected bitrate : 1024 kBit/s
Quality : High
Add ID3 tag : No
Command line compressor : C:\Flac\flac.exe
Additional command line options : -8 -V -T "ARTIST=%a" -T "TITLE=%t" -T "ALBUM=%g" -T "DATE=%y" -T "TRACKNUMBER=%n" -T "TOTALTRACKS=%x" -T "GENRE=%m" -T "COMMENT=%e" %s -o %d
TOC of the extracted CD
Track | Start | Length | Start sector | End sector
---------------------------------------------------------
1 | 0:00.00 | 5:55.25 | 0 | 26649
2 | 5:55.25 | 2:35.60 | 26650 | 38334
3 | 8:31.10 | 2:04.65 | 38335 | 47699
4 | 10:36.00 | 2:18.60 | 47700 | 58109
5 | 12:54.60 | 2:42.52 | 58110 | 70311
6 | 15:37.37 | 1:00.50 | 70312 | 74861
7 | 16:38.12 | 3:23.08 | 74862 | 90094
8 | 20:01.20 | 0:40.05 | 90095 | 93099
9 | 20:41.25 | 3:03.25 | 93100 | 106849
10 | 23:44.50 | 7:45.07 | 106850 | 141731
11 | 31:29.57 | 1:30.23 | 141732 | 148504
12 | 33:00.05 | 2:42.40 | 148505 | 160694
13 | 35:42.45 | 3:02.27 | 160695 | 174371
14 | 38:44.72 | 1:47.65 | 174372 | 182461
15 | 40:32.62 | 2:18.58 | 182462 | 192869
16 | 42:51.45 | 3:04.40 | 192870 | 206709
Track 1
Filename D:\Music\George Winston\[1994] Forest\01 - Tamarack Pines.wav
Pre-gap length 0:00:02.00
Peak level 96.7 %
Track quality 99.9 %
Test CRC 297BBEFE
Copy CRC 297BBEFE
Track not present in AccurateRip database
Copy OK
Track 2
Filename D:\Music\George Winston\[1994] Forest\02 - Forbidden Forest.wav
Pre-gap length 0:00:00.02
Peak level 85.6 %
Track quality 100.0 %
Test CRC 231154DD
Copy CRC 231154DD
Track not present in AccurateRip database
Copy OK
Track 3
Filename D:\Music\George Winston\[1994] Forest\03 - Troubadour.wav
Pre-gap length 0:00:05.02
Peak level 61.8 %
Track quality 99.9 %
Test CRC CB2FE984
Copy CRC CB2FE984
Track not present in AccurateRip database
Copy OK
Track 4
Filename D:\Music\George Winston\[1994] Forest\04 - The Cradle.wav
Pre-gap length 0:00:02.20
Peak level 58.8 %
Track quality 99.9 %
Test CRC 130F4EB9
Copy CRC 130F4EB9
Track not present in AccurateRip database
Copy OK
Track 5
Filename D:\Music\George Winston\[1994] Forest\05 - Cloudy This Morning.wav
Pre-gap length 0:00:02.05
Peak level 100.0 %
Track quality 99.9 %
Test CRC F2151B23
Copy CRC F2151B23
Track not present in AccurateRip database
Copy OK
Track 6
Filename D:\Music\George Winston\[1994] Forest\06 - Last Lullaby Here.wav
Pre-gap length 0:00:00.02
Peak level 99.0 %
Track quality 100.0 %
Test CRC A7E04F1F
Copy CRC A7E04F1F
Track not present in AccurateRip database
Copy OK
Track 7
Filename D:\Music\George Winston\[1994] Forest\07 - Mon Enfant (My Child).wav
Pre-gap length 0:00:00.02
Peak level 46.9 %
Track quality 100.0 %
Test CRC 7EFF30FB
Copy CRC 7EFF30FB
Track not present in AccurateRip database
Copy OK
Track 8
Filename D:\Music\George Winston\[1994] Forest\08 - Returning.wav
Pre-gap length 0:00:00.02
Peak level 38.2 %
Track quality 100.0 %
Test CRC 9BB56D66
Copy CRC 9BB56D66
Track not present in AccurateRip database
Copy OK
Track 9
Filename D:\Music\George Winston\[1994] Forest\09 - Graceful Ghost.wav
Pre-gap length 0:00:00.02
Peak level 68.8 %
Track quality 100.0 %
Test CRC 216E1E43
Copy CRC 216E1E43
Track not present in AccurateRip database
Copy OK
Track 10
Filename D:\Music\George Winston\[1994] Forest\10 - Walking in the Air.wav
Pre-gap length 0:00:03.62
Peak level 65.0 %
Track quality 100.0 %
Test CRC 96A8BA18
Copy CRC 96A8BA18
Track not present in AccurateRip database
Copy OK
Track 11
Filename D:\Music\George Winston\[1994] Forest\11 - Building the Snowman.wav
Pre-gap length 0:00:01.32
Peak level 87.8 %
Track quality 99.8 %
Test CRC 2762FF7C
Copy CRC 2762FF7C
Track not present in AccurateRip database
Copy OK
Track 12
Filename D:\Music\George Winston\[1994] Forest\12 - The Snowman's Music Box Dance.wav
Pre-gap length 0:00:00.02
Peak level 81.2 %
Track quality 100.0 %
Test CRC 48F2E1A2
Copy CRC 48F2E1A2
Track not present in AccurateRip database
Copy OK
Track 13
Filename D:\Music\George Winston\[1994] Forest\13 - Love Song to a Ballerina.wav
Pre-gap length 0:00:02.12
Peak level 65.9 %
Track quality 100.0 %
Test CRC BD5143A4
Copy CRC BD5143A4
Track not present in AccurateRip database
Copy OK
Track 14
Filename D:\Music\George Winston\[1994] Forest\14 - Lights in the Sky.wav
Pre-gap length 0:00:04.42
Peak level 81.9 %
Track quality 100.0 %
Test CRC E1ADF5F9
Copy CRC E1ADF5F9
Track not present in AccurateRip database
Copy OK
Track 15
Filename D:\Music\George Winston\[1994] Forest\15 - Japanese Music Box (Itsuki No Komoriuta).wav
Pre-gap length 0:00:00.02
Peak level 42.6 %
Track quality 100.0 %
Test CRC 04F88B1C
Copy CRC 04F88B1C
Track not present in AccurateRip database
Copy OK
Track 16
Filename D:\Music\George Winston\[1994] Forest\16 - Night Sky.wav
Pre-gap length 0:00:02.05
Peak level 92.6 %
Track quality 100.0 %
Test CRC C9AC2D9A
Copy CRC C9AC2D9A
Track not present in AccurateRip database
Copy OK
None of the tracks are present in the AccurateRip database
No errors occurred
End of status report
Доп. информация
Piano solos
George Winston’s WINTER INTO SPRING is a tribute to the early spring season and was the follow-up to his 1980 album, AUTUMN.
1. January Stars (6:32)
2. February Sea (5:15)
Inspired by the great band The Doors (Ray Manzaerk, Robby Kreiger, John Densmore and the late Jim Morrison).
3. Ocean Waves (O Mar) (7:08)
Composed in 1939 by the great Brazilian composer Dorival Caymmi, of the well known musical Caymmi family. This song, which originally had lyrics, was made into an incredible solo guitar odyssey by the late Brazilian guitarist Bola Sete (Djalma de Andrade) (1923-1987) on his recording OCEAN MEMORIES (on the Samba Moon label, formerly titled OCEAN). Also see Bola’s great recording SHAMBHALA MOON (formerly titled JUNGLE SUITE, and on the Samba Moon label), and the upcoming WINDSPELL (his last recordings before he passed away). For more information on Bola Sete see www.bolasete.com.
4. Reflection (2:40)
5. Rain (10:05)
Inspired by the Montana storms. The middle section is influenced by the work of the great modern composer Steve Reich.
6. Blossom/Meadow 4:0
7. The Venice Dreamer
8:05 Part One - Introduction
2:19 Part Two 5:46
In memory of David Fleck
Produced by George Winston and William Ackerman
Executive Producer: William Ackerman
Recorded March 1982
Engineered by Howard Johnston
Assistant Engineer: Karen Kirsch
Mastered by Bernie Grundman at Bernie Grundman Mastering, Hollywood, CA
Remastered September, 1990 using the Sonic Solutions NoNOISE® system
Cover photo by Ron May
Design by Anne Robinson
Reflection transcribed for enhanced CD by George Winston and Tom Bochold
All songs composed by George Winston in 1981-1982 and published by Imaginary Road Music/Dancing Cat Music (BMI); except Ocean Waves (O Mar) composed by Dorival Caymmi in 1939, arranged by Bola Sete and published by Mangione (Brazil) (SBACEM).
Special thanks to the late Bola Sete for his inspiration and for his arrangement of Ocean Waves from his solo guitar album, OCEAN MEMORIES. Also thanks to Henry Roeland Byrd (the late Professor Longhair), Cathy Econom, Megan Corwin, Scott Cossu, Dominic Frontiere, the late John Fahey, Alex de Grassi, Sylvan Grey, the late David Fleck, Daniel Hecht, the late Michael Hedges, Steve Reich, L. Subramaniam, Thomas “Fats” Waller and the members of the Doors: Ray Manzarek, Robby Kreiger, John Densmore and the late Jim Morrison.
другие диски:
1982 - George Winston - December
1982 - George Winston - Forest
1991 - George Winston - Summer
1996 - George Winston - Linus & Lucy, The Music Of Vince Guaraldi
1999 - George Winston - Plains (Solo Piano)
Download
Для скачивания .torrent файлов необходима регистрация
Сайт не распространяет и не хранит электронные версии произведений, а лишь предоставляет доступ к создаваемому пользователями каталогу ссылок на торрент-файлы, которые содержат только списки хеш-сумм
[Профиль]  [ЛС] 
 
Ответить
Loading...
Error