(Abstract, Ambient, Ambientpop) Enigma - Official Collection (7 +2 albums & 3 compilations) - 1990-2008, FLAC (tracks+.cue), lossless

Страницы :  1, 2, 3 ... 18, 19, 20  След.

Ответить
Автор
Сообщение

DrStandBy

Lossless Group VIP

Стаж: 12 лет 1 месяц

Сообщений: 15173

DrStandBy · 20-Сен-08 18:29 (10 лет 1 месяц назад, ред. 24-Апр-12 21:23)


Полная дискография
7+2 альбомов и 3 сборника
-= FLAC (tracks+.cue) =-
Вирусов в раздаче НЕТ!!! Это ложное срабатывание антивирусов при эвристическом анализе
Альбомы Enigma (1990-2008)
(1990) - MCMXC a.D.
Треклист:
01.The Voice of Enigma 2:21
02. Principles of Lust 11:43
A. Sadeness
B. Find Love
C. Sadeness (Reprise)
03. Callas Went Away 4:27
04. Mea Culpa 5:03
05. The Voice & The Snake 1:39
06. Knocking on Forbidden Doors 4:31
07. Back to the Rivers of Belief 10:32
A. Way to Eternity
B. Hallelujah
C. The Rivers of Belief
(1991) - MCMXC a.D. 'Limited Edition'
Треклист:
01. The Voice of Enigma 2:21
02. Principles of Lust 11:43
A. Sadeness
B. Find Love
C. Sadeness (Reprise)
03. Callas Went Away 4:27
04. Mea Culpa 5:03
05. The Voice & The Snake 1:39
06. Knocking on Forbidden Doors 4:31
07. Back to the Rivers of Belief 10:32
A. Way to Eternity
B. Hallelujah
C. The Rivers of Belief
08. Sadeness (Meditation Mix) 2:44
09. Mea Culpa (Fading Shades Mix) 6:04
10. Principles of Lust (Everlasting Lust Mix) 4:51
11. The Rivers of Belief (The Returning Silence) 7:04
(1993) - The Cross Of Changes
Треклист:
01. Second Chapter 2:16
02. The Eyes of Truth 7:13
03. Return to Innocence 4:17
04. I Love You...I'll Kill You 8:51
05. Silent Warrior 6:10
06. The Dream of the Dolphin 2:47
07. Age of Loneliness (Carly's Song) 5:22
08. Out from the Deep 4:53
09. The CROSS of Changes 2:23
(1994) - Enigma 2: The Cross Of Changes (Special Limited Edition)
Enigma - Enigma 2: The Cross Of Changes (Special Limited Edition)
Жанр: Abstract, Ambient
Источник снятия рипа: Диск из собственной коллекции*
Оригинальный риппер и релизер: DrStandBy*
Способ получения рипа: Использование рекомендованной правилами программы-риппера*
Аудио кодек: FLAC
Битрейт: lossless
Типа рипа: tracks+.cue
Наличие сканов в раздаче: Да (600pdi, *.PNG)
Продолжительность: 65:03
Трэклист:

01. Second Chapter (2:15)
02. The Eyes Of Truth (7:14)
03. Return To Innocence (4:15)
04. I Love You... I'll Kill You (8:53)
05. Silent Warrior (6:10)
06. The Dream Of The Dolphin (2:47)
07. Age Of Loneliness (Carly's Song) (5:22)
08. Out From The Deep (4:53)
09. The Cross Of Changes (2:26)
10. Return To Innocence (Long & Alive Version) (7:07)
11. Age Of Loneliness (Enigmatic Club Mix) (6:23)
12. The Eyes Of Truth (The Götterdämmerung Mix) (The Twilight Of The Gods) (7:18)
Специальное издание выпушено было в Корее и Великобритании на диске 24-каратным золотом. Содержит три ремикса в отличие от классической версии

Лог EAC
Exact Audio Copy V1.0 beta 1 from 15. November 2010
EAC extraction logfile from 25. March 2011, 22:37
Enigma / Enigma 2: The Cross Of Changes (Special Limited Edition)
Used drive : HL-DT-STDVDRAM GH22NS50 Adapter: 13 ID: 0
Read mode : Secure
Utilize accurate stream : Yes
Defeat audio cache : Yes
Make use of C2 pointers : No
Read offset correction : 667
Overread into Lead-In and Lead-Out : No
Fill up missing offset samples with silence : Yes
Delete leading and trailing silent blocks : No
Null samples used in CRC calculations : Yes
Used interface : Native Win32 interface for Win NT & 2000
Gap handling : Appended to previous track
Used output format : User Defined Encoder
Selected bitrate : 128 kBit/s
Quality : High
Add ID3 tag : Yes
Command line compressor : C:\Program Files\Exact Audio Copy\Flac\flac.exe
Additional command line options : -8 -V -T "ARTIST=%a" -T "TITLE=%t" -T "ALBUM=%g" -T "DATE=%y" -T "TRACKNUMBER=%n" -T "GENRE=%m" -T "COMMENT=ripped by DrStandBy" %s
TOC of the extracted CD
Track | Start | Length | Start sector | End sector
---------------------------------------------------------
1 | 0:00.32 | 2:15.23 | 32 | 10179
2 | 2:15.55 | 7:14.37 | 10180 | 42766
3 | 9:30.17 | 4:15.35 | 42767 | 61926
4 | 13:45.52 | 8:52.43 | 61927 | 101869
5 | 22:38.20 | 6:09.57 | 101870 | 129601
6 | 28:48.02 | 2:47.30 | 129602 | 142156
7 | 31:35.32 | 5:21.38 | 142157 | 166269
8 | 36:56.70 | 4:53.07 | 166270 | 188251
9 | 41:50.02 | 2:25.55 | 188252 | 199181
10 | 44:15.57 | 7:06.60 | 199182 | 231191
11 | 51:22.42 | 6:22.58 | 231192 | 259899
12 | 57:45.25 | 7:18.07 | 259900 | 292756
Track 1
Filename E:\Enigma\Album\1994 - Enigma 2 - The Cross Of Changes (Special Limited Edition) (CDVIRX 20)\01. Enigma - Second Chapter.wav
Pre-gap length 0:00:02.32
Peak level 46.1 %
Extraction speed 0.9 X
Track quality 100.0 %
Test CRC 0D3B5571
Copy CRC 0D3B5571
Accurately ripped (confidence 2) [52A9F7EB]
Copy OK
Track 2
Filename E:\Enigma\Album\1994 - Enigma 2 - The Cross Of Changes (Special Limited Edition) (CDVIRX 20)\02. Enigma - The Eyes Of Truth.wav
Peak level 99.0 %
Extraction speed 1.3 X
Track quality 100.0 %
Test CRC 3DCF1790
Copy CRC 3DCF1790
Accurately ripped (confidence 2) [AD1B6E85]
Copy OK
Track 3
Filename E:\Enigma\Album\1994 - Enigma 2 - The Cross Of Changes (Special Limited Edition) (CDVIRX 20)\03. Enigma - Return To Innocence.wav
Peak level 99.0 %
Extraction speed 1.4 X
Track quality 100.0 %
Test CRC 208EE904
Copy CRC 208EE904
Accurately ripped (confidence 2) [574E04DB]
Copy OK
Track 4
Filename E:\Enigma\Album\1994 - Enigma 2 - The Cross Of Changes (Special Limited Edition) (CDVIRX 20)\04. Enigma - I Love You... I'll Kill You.wav
Peak level 99.0 %
Extraction speed 1.6 X
Track quality 100.0 %
Test CRC 5B840CD3
Copy CRC 5B840CD3
Accurately ripped (confidence 2) [69ACFF8E]
Copy OK
Track 5
Filename E:\Enigma\Album\1994 - Enigma 2 - The Cross Of Changes (Special Limited Edition) (CDVIRX 20)\05. Enigma - Silent Warrior.wav
Peak level 99.0 %
Extraction speed 1.8 X
Track quality 100.0 %
Test CRC 68DF8867
Copy CRC 68DF8867
Accurately ripped (confidence 2) [1568A9D0]
Copy OK
Track 6
Filename E:\Enigma\Album\1994 - Enigma 2 - The Cross Of Changes (Special Limited Edition) (CDVIRX 20)\06. Enigma - The Dream Of The Dolphin.wav
Peak level 49.2 %
Extraction speed 1.7 X
Track quality 100.0 %
Test CRC 7B6D5C9D
Copy CRC 7B6D5C9D
Accurately ripped (confidence 2) [8BFA24DD]
Copy OK
Track 7
Filename E:\Enigma\Album\1994 - Enigma 2 - The Cross Of Changes (Special Limited Edition) (CDVIRX 20)\07. Enigma - Age Of Loneliness (Carly's Song).wav
Peak level 98.4 %
Extraction speed 1.9 X
Track quality 100.0 %
Test CRC C21F2850
Copy CRC C21F2850
Accurately ripped (confidence 2) [65329EF8]
Copy OK
Track 8
Filename E:\Enigma\Album\1994 - Enigma 2 - The Cross Of Changes (Special Limited Edition) (CDVIRX 20)\08. Enigma - Out From The Deep.wav
Pre-gap length 0:00:36.69
Peak level 99.0 %
Extraction speed 1.9 X
Track quality 100.0 %
Test CRC 7531717F
Copy CRC 7531717F
Accurately ripped (confidence 2) [6DA190DB]
Copy OK
Track 9
Filename E:\Enigma\Album\1994 - Enigma 2 - The Cross Of Changes (Special Limited Edition) (CDVIRX 20)\09. Enigma - The Cross Of Changes.wav
Peak level 63.3 %
Extraction speed 1.8 X
Track quality 100.0 %
Test CRC 758276EB
Copy CRC 758276EB
Accurately ripped (confidence 2) [AAE3E5C7]
Copy OK
Track 10
Filename E:\Enigma\Album\1994 - Enigma 2 - The Cross Of Changes (Special Limited Edition) (CDVIRX 20)\10. Enigma - Return To Innocence (Long & Alive Version).wav
Pre-gap length 0:00:00.74
Peak level 100.0 %
Extraction speed 2.2 X
Track quality 100.0 %
Test CRC 59BBDC15
Copy CRC 59BBDC15
Accurately ripped (confidence 2) [8EE9A885]
Copy OK
Track 11
Filename E:\Enigma\Album\1994 - Enigma 2 - The Cross Of Changes (Special Limited Edition) (CDVIRX 20)\11. Enigma - Age Of Loneliness (Enigmatic Club Mix).wav
Pre-gap length 0:00:00.74
Peak level 99.3 %
Extraction speed 2.3 X
Track quality 100.0 %
Test CRC 8D9281A1
Copy CRC 8D9281A1
Accurately ripped (confidence 2) [694EE9E1]
Copy OK
Track 12
Filename E:\Enigma\Album\1994 - Enigma 2 - The Cross Of Changes (Special Limited Edition) (CDVIRX 20)\12. Enigma - The Eyes Of Truth (The Götterdämmerung Mix) (The Twilight Of The Gods).wav
Pre-gap length 0:00:00.74
Peak level 99.0 %
Extraction speed 2.4 X
Track quality 100.0 %
Test CRC 77DB1AF1
Copy CRC 77DB1AF1
Accurately ripped (confidence 2) [430DE682]
Copy OK
All tracks accurately ripped
No errors occurred
End of status report
==== Log checksum E56B71BFE51DD4925F4B4F0C3165CE088D202711B1354F900D102570461D2A23 ====
CUE
REM GENRE "New Age"
REM DATE 1994
REM DISCID A80F3F0C
REM COMMENT "ExactAudioCopy v1.0b1"
CATALOG 0000000000000
PERFORMER "Enigma"
TITLE "Enigma 2: The Cross Of Changes (Special Limited Edition)"
FILE "01. Enigma - Second Chapter.wav" WAVE
TRACK 01 AUDIO
TITLE "Second Chapter"
PERFORMER "Enigma"
ISRC 000000000000
PREGAP 00:00:32
INDEX 01 00:00:00
FILE "02. Enigma - The Eyes Of Truth.wav" WAVE
TRACK 02 AUDIO
TITLE "The Eyes Of Truth"
PERFORMER "Enigma"
ISRC 000000000000
INDEX 01 00:00:00
FILE "03. Enigma - Return To Innocence.wav" WAVE
TRACK 03 AUDIO
TITLE "Return To Innocence"
PERFORMER "Enigma"
ISRC 000000000000
INDEX 01 00:00:00
FILE "04. Enigma - I Love You... I'll Kill You.wav" WAVE
TRACK 04 AUDIO
TITLE "I Love You... I'll Kill You"
PERFORMER "Enigma"
ISRC 000000000000
INDEX 01 00:00:00
FILE "05. Enigma - Silent Warrior.wav" WAVE
TRACK 05 AUDIO
TITLE "Silent Warrior"
PERFORMER "Enigma"
ISRC 000000000000
INDEX 01 00:00:00
FILE "06. Enigma - The Dream Of The Dolphin.wav" WAVE
TRACK 06 AUDIO
TITLE "The Dream Of The Dolphin"
PERFORMER "Enigma"
ISRC 000000000000
INDEX 01 00:00:00
FILE "07. Enigma - Age Of Loneliness (Carly's Song).wav" WAVE
TRACK 07 AUDIO
TITLE "Age Of Loneliness (Carly's Song)"
PERFORMER "Enigma"
ISRC 000000000000
INDEX 01 00:00:00
TRACK 08 AUDIO
TITLE "Out From The Deep"
PERFORMER "Enigma"
ISRC 000000000000
INDEX 00 04:44:44
FILE "08. Enigma - Out From The Deep.wav" WAVE
INDEX 01 00:00:00
FILE "09. Enigma - The Cross Of Changes.wav" WAVE
TRACK 09 AUDIO
TITLE "The Cross Of Changes"
PERFORMER "Enigma"
ISRC 000000000000
INDEX 01 00:00:00
TRACK 10 AUDIO
TITLE "Return To Innocence (Long & Alive Version)"
PERFORMER "Enigma"
ISRC 000000000000
INDEX 00 02:24:56
FILE "10. Enigma - Return To Innocence (Long & Alive Version).wav" WAVE
INDEX 01 00:00:00
TRACK 11 AUDIO
TITLE "Age Of Loneliness (Enigmatic Club Mix)"
PERFORMER "Enigma"
ISRC 000000000000
INDEX 00 07:05:61
FILE "11. Enigma - Age Of Loneliness (Enigmatic Club Mix).wav" WAVE
INDEX 01 00:00:00
TRACK 12 AUDIO
TITLE "The Eyes Of Truth (The Gotterdammerung Mix) (The Twilight Of The Gods)"
PERFORMER "Enigma"
ISRC 000000000000
INDEX 00 06:21:59
FILE "12. Enigma - The Eyes Of Truth (The Gotterdammerung Mix) (The Twilight Of The Gods).wav" WAVE
INDEX 01 00:00:00
(1996) - Le Roi Est Mort, Vive Le Roi!
Треклист:
01. Le Roi Est Mort, Vive Le Roi 1:57
02. Morphing Thru Time 5:47
03. Third of its Kind 0:17
04. Beyond the Invisible 5:00
05. Why! 4:59
06. Shadows in Silence 4:21
07. The Child In Us 5:06
08. TNT For the Brain 4:26
09. Almost Full Moon 3:26
10. The Roundabout 3:38
11. Prism of Life 4:55
12. Odyssey of the Mind 1:45
(2000) - The Screen Behind the Mirror
01. The Gate (2:04)
02. Push the Limits (6:27)
03. Gravity of Love (3:59)
04. Smell of Desire (4:57)
05. Modern Crusaders (3:51)
06. Traces (Light and Weight) (4:12)
07. The Screen Behind the Mirror (3:59)
08. Endless Quest (3:06)
09. Camera Obscura (1:28)
10. Between Mind & Heart (4:10)
11. Silence Must Be Heard (5:19)
(2003) - Voyageur
Треклист:
01. From East To West 4:10
02. Voyageur 4:36
03. Incognito 4:24
04. Page Of Cups 7:00
05. Boum-Boum 4:30
06. Total Eclipse Of The Moon 2:16
07. Look Of Today 3:44
08. In The Shadow, In The Light 5:33
09. Weightless 2:18
10. The Piano 3:00
11. Following The Sun 5:48
(2006) - A Posteriori
Треклист:
01. Eppur Si Muove 3:39
02. Feel Me Heaven 4:53
03. Dreaming Of Andromeda 4:27
04. Dancing with Mephisto 4:24
05. Northern Lights 3:34
06. Invisible Love 5:06
07. Message From IO 3:09
08. Hello And Welcome 5:07
09. 20.000 Miles Over The Sea 4:22
10. Sitting On The Moon 4:21
11. The Alchemist 4:40
12. Goodbye Milky Way 5:56
(2008) - Seven Lives Many Faces (Limited Edition, 2CD)
Треклист:
Disc 1
1. Encounters 3:12
2. Seven Lives 4:25
3. Touchness 3:35
4. The Same Parents 5:19
5. Fata Morgana 3:23
6. Hell's Heaven 3:51
7. La Puerta Del Cielo 3:28
8. Distorted Love 4:11
9. Je T'aime Till My Dying Day 4:18
10.DÚjÓ Vu 2:56
11.Between Generations 4:31
12.The Language Of Sound 4:20
Disc 2
1. Superficial 2:58
2. We Are Nature 3:51
3. Downtown Silence 2:08
4. Sunrise 2:38
5. The Language Of Sound (Slow Edit) 3:56
Сборники Enigma
(2001) - Love Sensuality Devotion - The Greatest Hits
Треклист:
01. The Landing 1:04
02. Turn Around 3:51
03. Gravity Of Love 3:59
04. T.N.T. For The Brain 5:18
05. Modern Crusaders 3:53
06. Shadows In Silence 4:19
07. Return To Innocence 4:15
08. I Love You ... I'll Kill You 8:01
09. Principles Of Lust 3:08
10. Sadeness (Part I) 4:15
11. Silence Must Be Heard 4:46
12. Smell Of Desire 4:32
13. Mea Culpa 4:31
14. Push The Limits 3:48
15. Beyond The Invisible 4:50
16. Age Of Loneliness 4:10
17. Morphing Thru Time 5:26
18. The Cross Of Changes 2:15
(2001) - Love Sensuality Devotion - The Remix Collection
Треклист:
01. Turn Around (Northern Lights Club Mix) 10:27
02. Age Of Loneliness (Enigmatic Club Mix) 6:15
03. Push The Limits (ATB Remix) 7:42
04. Gravity Of Love (Judgement Day Club Mix) 5:59
05. Return To Innocence (380 Midnight Mix) 5:43
06. Sadeness (Violent U.S. Remix) 4:43
07. Principles Of Lust (Everlasting Lust Mix) 4:56
08. Mea Culpa (Fading Shades Mix) 6:40
09. T.N.T. For The Brain (Midnight Man Mix) 5:57
(2005) - The Dusted Variations (15 Years After - The Bonus CD)
Треклист:
01. Hello & Welcome
02. The Child In Us (The Dusted Variation)
03. Age Of Loneliness (The Dusted Variation)
04. The Eyes Of Truth (The Dusted Variation)
05. The Rivers Of Belief (The Dusted Variation)
06. Sadness Pt 1 (The Dusted Variation)
07. Traces - Light And Weight (The Dusted Variation)
08. Voyageur (The Dusted Variations)
09. Beyond The Invisible (The Dusted Variations)
Выражаю особую благодарность kalexxx, wwswws без которых настоящий релиз мог бы еще долго не состояться.Советую также послушать (Enigmatic) VA - Real Sadness & Other Gregorian Mysteries - The Ultimate Compilation - 1990, APE (image+.cue) lossless многие начинали после первого альбома Enigma знакомство с энигматикой именно с этого диска.Если клиент пишет "Отказано в доступе", виновник тому файл EnigmaStarter.exe (папка Extra альбома Seven Lives Many Faces), просто добавьте этот файл в исключения или доверенные файлы вашего антивируса, после чего перехешируйте. Или откажитесь от закачки этого файла.
26.03.2011 раздача дополнена (1994) - Enigma 2: The Cross Of Changes (Special Limited Edition) рипа снят с оригинального диска мной.
Download
Для скачивания .torrent файлов необходима регистрация
Сайт не распространяет и не хранит электронные версии произведений, а лишь предоставляет доступ к создаваемому пользователями каталогу ссылок на торрент-файлы, которые содержат только списки хеш-сумм
[Профиль]  [ЛС] 

DrStandBy

Lossless Group VIP

Стаж: 12 лет 1 месяц

Сообщений: 15173

DrStandBy · 21-Сен-08 00:32 (спустя 6 часов, ред. 24-Сен-08 06:27)

[Цитировать] 

Альбомы Enigma (1990-2008)
Лог EAC (1990) - MCMXC a.D.
Exact Audio Copy V0.99 prebeta 4 from 23. January 2008
EAC extraction logfile from 20. September 2008, 19:47
Enigma / M C M X C a. D.
Used drive : PLEXTOR DVDR PX-716A Adapter: 0 ID: 0
Read mode : Secure
Utilize accurate stream : Yes
Defeat audio cache : Yes
Make use of C2 pointers : No
Read offset correction : 30
Overread into Lead-In and Lead-Out : No
Fill up missing offset samples with silence : Yes
Delete leading and trailing silent blocks : No
Null samples used in CRC calculations : Yes
Used interface : Native Win32 interface for Win NT & 2000
Gap handling : Appended to previous track
Used output format : User Defined Encoder
Selected bitrate : 128 kBit/s
Quality : High
Add ID3 tag : No
Command line compressor : C:\Program Files\FLAC\flac.exe
Additional command line options : -8 -V -T "ARTIST=%a" -T "TITLE=%t" -T "ALBUM=%g" -T "DATE=%y" -T "TRACKNUMBER=%n" -T "GENRE=%m" -T "COMMENT=EAC FLAC -8" %s
TOC of the extracted CD
Track | Start | Length | Start sector | End sector
---------------------------------------------------------
1 | 0:00.00 | 2:21.37 | 0 | 10611
2 | 2:21.37 | 11:43.10 | 10612 | 63346
3 | 14:04.47 | 4:29.28 | 63347 | 83549
4 | 18:34.00 | 5:01.25 | 83550 | 106149
5 | 23:35.25 | 1:41.05 | 106150 | 113729
6 | 25:16.30 | 4:22.50 | 113730 | 133429
7 | 29:39.05 | 10:36.20 | 133430 | 181149
Track 1
Filename E:\EAC rip\01 - The Voice Of Enigma.wav
Pre-gap length 0:00:02.00
Peak level 26.1 %
Track quality 100.0 %
Test CRC BD15CAA4
Copy CRC BD15CAA4
Accurately ripped (confidence 15) [8E85A46F]
Copy OK
Track 2
Filename E:\EAC rip\02 - Principles Of Lust [Sadeness - Find Love - Sadeness (reprise)].wav
Peak level 98.0 %
Track quality 100.0 %
Test CRC 6F67E8FC
Copy CRC 6F67E8FC
Accurately ripped (confidence 15) [8BBF0A83]
Copy OK
Track 3
Filename E:\EAC rip\03 - Callas Went Away.wav
Pre-gap length 0:00:00.01
Peak level 100.0 %
Track quality 100.0 %
Test CRC A5320F7F
Copy CRC A5320F7F
Accurately ripped (confidence 15) [F373B90C]
Copy OK
Track 4
Filename E:\EAC rip\04 - Mea Culpa.wav
Pre-gap length 0:00:00.01
Peak level 97.7 %
Track quality 100.0 %
Test CRC 754C5B9F
Copy CRC 754C5B9F
Accurately ripped (confidence 15) [3E9A7872]
Copy OK
Track 5
Filename E:\EAC rip\05 - The Voice And The Snake.wav
Peak level 43.8 %
Track quality 100.0 %
Test CRC 363AB20F
Copy CRC 363AB20F
Accurately ripped (confidence 15) [99C380C0]
Copy OK
Track 6
Filename E:\EAC rip\06 - Knocking On Forbidden Doors.wav
Peak level 99.3 %
Track quality 99.9 %
Test CRC C404CACA
Copy CRC C404CACA
Accurately ripped (confidence 15) [37BFCE2C]
Copy OK
Track 7
Filename E:\EAC rip\07 - Back To The Rivers Of Belief [Way To Eternity - Hallelujah - T.wav
Peak level 98.0 %
Track quality 100.0 %
Test CRC 62F87EB0
Copy CRC 62F87EB0
Accurately ripped (confidence 15) [9BA2EDC5]
Copy OK
All tracks accurately ripped
No errors occurred
End of status report
Лог EAC (1991) - MCMXC a.D. 'Limited Edition'
Exact Audio Copy V0.99 prebeta 4 from 23. January 2008
EAC extraction logfile from 20. September 2008, 21:15
Enigma / MCMXC a.D. - The Limited Edition
Used drive : PLEXTOR DVDR PX-760A Adapter: 1 ID: 0
Read mode : Secure
Utilize accurate stream : Yes
Defeat audio cache : Yes
Make use of C2 pointers : No
Read offset correction : 30
Overread into Lead-In and Lead-Out : No
Fill up missing offset samples with silence : Yes
Delete leading and trailing silent blocks : No
Null samples used in CRC calculations : Yes
Used interface : Native Win32 interface for Win NT & 2000
Gap handling : Appended to previous track
Used output format : User Defined Encoder
Selected bitrate : 320 kBit/s
Quality : High
Add ID3 tag : No
Command line compressor : C:\Program Files\FLAC\flac.exe
Additional command line options : -8 -V -T "ARTIST=%a" -T "TITLE=%t" -T "ALBUM=%g" -T "DATE=%y" -T "TRACKNUMBER=%n" -T "GENRE=%m" -T "COMMENT=EAC FLAC -8" %s
TOC of the extracted CD
Track | Start | Length | Start sector | End sector
---------------------------------------------------------
1 | 0:00.33 | 2:08.32 | 33 | 9664
2 | 2:08.65 | 4:15.55 | 9665 | 28844
3 | 6:24.45 | 4:49.40 | 28845 | 50559
4 | 11:14.10 | 2:48.55 | 50560 | 63214
5 | 14:02.65 | 4:29.33 | 63215 | 83422
6 | 18:32.23 | 4:53.02 | 83423 | 105399
7 | 23:25.25 | 1:45.40 | 105400 | 113314
8 | 25:10.65 | 4:27.50 | 113315 | 133389
9 | 29:38.40 | 2:19.15 | 133390 | 143829
10 | 31:57.55 | 4:15.20 | 143830 | 162974
11 | 36:13.00 | 3:31.73 | 162975 | 178872
12 | 39:44.73 | 2:43.60 | 178873 | 191157
13 | 42:28.58 | 6:04.15 | 191158 | 218472
14 | 48:32.73 | 4:50.55 | 218473 | 240277
15 | 53:23.53 | 7:04.17 | 240278 | 272094
Track 1
Filename C:\APE\Enigma\Album\1991 - MCMXC a.D. (Limited Edition)\01 - The voice of Enigma.wav
Pre-gap length 0:00:02.33
Peak level 29.4 %
Track quality 100.0 %
Test CRC A061B18F
Copy CRC A061B18F
Accurately ripped (confidence 51) [72D94835]
Copy OK
Track 2
Filename C:\APE\Enigma\Album\1991 - MCMXC a.D. (Limited Edition)\02 - Principles of lust a) Sadeness.wav
Peak level 99.0 %
Track quality 100.0 %
Test CRC E0F7D3D1
Copy CRC E0F7D3D1
Accurately ripped (confidence 50) [81BDC259]
Copy OK
Track 3
Filename C:\APE\Enigma\Album\1991 - MCMXC a.D. (Limited Edition)\03 - Principles of lust b) Find love.wav
Peak level 99.0 %
Track quality 99.9 %
Test CRC 4942671D
Copy CRC 4942671D
Accurately ripped (confidence 49) [0E8FAEAC]
Copy OK
Track 4
Filename C:\APE\Enigma\Album\1991 - MCMXC a.D. (Limited Edition)\04 - Principles of lust c) Sadeness (Reprise).wav
Peak level 99.0 %
Track quality 100.0 %
Test CRC 3CA15605
Copy CRC 3CA15605
Accurately ripped (confidence 49) [90F2474F]
Copy OK
Track 5
Filename C:\APE\Enigma\Album\1991 - MCMXC a.D. (Limited Edition)\05 - Callas went away.wav
Peak level 99.0 %
Track quality 100.0 %
Test CRC EEDFD39A
Copy CRC EEDFD39A
Accurately ripped (confidence 49) [5DC083FA]
Copy OK
Track 6
Filename C:\APE\Enigma\Album\1991 - MCMXC a.D. (Limited Edition)\06 - Mea culpa.wav
Peak level 99.0 %
Track quality 100.0 %
Test CRC F75307C4
Copy CRC F75307C4
Accurately ripped (confidence 50) [37BF0ACB]
Copy OK
Track 7
Filename C:\APE\Enigma\Album\1991 - MCMXC a.D. (Limited Edition)\07 - The voice & the snake.wav
Peak level 49.1 %
Track quality 100.0 %
Test CRC 8BF593DB
Copy CRC 8BF593DB
Accurately ripped (confidence 49) [E61D1D78]
Copy OK
Track 8
Filename C:\APE\Enigma\Album\1991 - MCMXC a.D. (Limited Edition)\08 - Knocking on forbidden doors.wav
Peak level 99.0 %
Track quality 100.0 %
Test CRC 461464C2
Copy CRC 461464C2
Accurately ripped (confidence 48) [A677466F]
Copy OK
Track 9
Filename C:\APE\Enigma\Album\1991 - MCMXC a.D. (Limited Edition)\09 - Back to the rivers of belief a) Way to eternity.wav
Peak level 26.6 %
Track quality 100.0 %
Test CRC 9E1449A7
Copy CRC 9E1449A7
Accurately ripped (confidence 50) [C70033D4]
Copy OK
Track 10
Filename C:\APE\Enigma\Album\1991 - MCMXC a.D. (Limited Edition)\10 - Back to the rivers of belief b) Hallelujah.wav
Peak level 95.4 %
Track quality 100.0 %
Test CRC 45D96E38
Copy CRC 45D96E38
Accurately ripped (confidence 47) [B48AADE0]
Copy OK
Track 11
Filename C:\APE\Enigma\Album\1991 - MCMXC a.D. (Limited Edition)\11 - Back to the rivers of belief c) The rivers of belief.wav
Peak level 99.0 %
Track quality 100.0 %
Test CRC 5C5D7E80
Copy CRC 5C5D7E80
Accurately ripped (confidence 48) [8FB60651]
Copy OK
Track 12
Filename C:\APE\Enigma\Album\1991 - MCMXC a.D. (Limited Edition)\12 - Sadeness (Meditation).wav
Peak level 97.9 %
Track quality 100.0 %
Test CRC 147EB08C
Copy CRC 147EB08C
Accurately ripped (confidence 47) [A3995A1A]
Copy OK
Track 13
Filename C:\APE\Enigma\Album\1991 - MCMXC a.D. (Limited Edition)\13 - Mea culpa (Fading shades).wav
Peak level 89.2 %
Track quality 100.0 %
Test CRC F328ABF9
Copy CRC F328ABF9
Accurately ripped (confidence 47) [314BD838]
Copy OK
Track 14
Filename C:\APE\Enigma\Album\1991 - MCMXC a.D. (Limited Edition)\14 - Principles of lust (Everlasting lust).wav
Peak level 99.0 %
Track quality 100.0 %
Test CRC 216C1294
Copy CRC 216C1294
Accurately ripped (confidence 45) [DA074A28]
Copy OK
Track 15
Filename C:\APE\Enigma\Album\1991 - MCMXC a.D. (Limited Edition)\15 - The rivers of belief (The returning silence).wav
Peak level 99.0 %
Track quality 100.0 %
Test CRC C29CDB5C
Copy CRC C29CDB5C
Cannot be verified as accurate (confidence 30) [FA7B0B80], AccurateRip returned [9CED0FA7]
Copy OK
14 track(s) accurately ripped
1 track(s) could not be verified as accurate
Some tracks could not be verified as accurate
No errors occurred
End of status report
Лог EAC (1993) - The Cross Of Changes
Exact Audio Copy V0.99 prebeta 4 from 23. January 2008
EAC extraction logfile from 20. September 2008, 20:55
Enigma / The CROSS Of Changes
Used drive : PLEXTOR DVDR PX-716A Adapter: 0 ID: 0
Read mode : Secure
Utilize accurate stream : Yes
Defeat audio cache : Yes
Make use of C2 pointers : No
Read offset correction : 30
Overread into Lead-In and Lead-Out : No
Fill up missing offset samples with silence : Yes
Delete leading and trailing silent blocks : No
Null samples used in CRC calculations : Yes
Used interface : Native Win32 interface for Win NT & 2000
Gap handling : Appended to previous track
Used output format : User Defined Encoder
Selected bitrate : 128 kBit/s
Quality : High
Add ID3 tag : No
Command line compressor : C:\Program Files\FLAC\flac.exe
Additional command line options : -8 -V -T "ARTIST=%a" -T "TITLE=%t" -T "ALBUM=%g" -T "DATE=%y" -T "TRACKNUMBER=%n" -T "GENRE=%m" -T "COMMENT=EAC FLAC -8" %s
TOC of the extracted CD
Track | Start | Length | Start sector | End sector
---------------------------------------------------------
1 | 0:00.00 | 2:15.22 | 0 | 10146
2 | 2:15.22 | 7:14.38 | 10147 | 42734
3 | 9:29.60 | 4:15.35 | 42735 | 61894
4 | 13:45.20 | 8:52.42 | 61895 | 101836
5 | 22:37.62 | 6:09.58 | 101837 | 129569
6 | 28:47.45 | 2:47.30 | 129570 | 142124
7 | 31:35.00 | 5:21.37 | 142125 | 166236
8 | 36:56.37 | 4:53.08 | 166237 | 188219
9 | 41:49.45 | 2:24.30 | 188220 | 199049
Track 1
Filename E:\EAC rip\01 - Second Chapter.wav
Pre-gap length 0:00:02.00
Peak level 46.1 %
Track quality 100.0 %
Test CRC B2719467
Copy CRC B2719467
Accurately ripped (confidence 23) [E03F6A18]
Copy OK
Track 2
Filename E:\EAC rip\02 - The Eyes Of Truth.wav
Pre-gap length 0:00:00.01
Peak level 99.0 %
Track quality 100.0 %
Test CRC FF4B2871
Copy CRC FF4B2871
Accurately ripped (confidence 23) [A4B1D45F]
Copy OK
Track 3
Filename E:\EAC rip\03 - Return To Innocence.wav
Peak level 99.0 %
Track quality 100.0 %
Test CRC C33F21F7
Copy CRC C33F21F7
Accurately ripped (confidence 23) [61FAC227]
Copy OK
Track 4
Filename E:\EAC rip\04 - I Love You ... I'll Kill You.wav
Peak level 99.0 %
Track quality 100.0 %
Test CRC 09E57724
Copy CRC 09E57724
Accurately ripped (confidence 23) [F084303D]
Copy OK
Track 5
Filename E:\EAC rip\05 - Silent Warrior.wav
Peak level 99.0 %
Track quality 100.0 %
Test CRC 7B453F2A
Copy CRC 7B453F2A
Accurately ripped (confidence 23) [CAB063A0]
Copy OK
Track 6
Filename E:\EAC rip\06 - The Dream Of The Dolphin.wav
Peak level 49.2 %
Track quality 100.0 %
Test CRC A420D5A3
Copy CRC A420D5A3
Accurately ripped (confidence 23) [AED9AD75]
Copy OK
Track 7
Filename E:\EAC rip\07 - Age Of Loneliness (Carly's Song).wav
Pre-gap length 0:00:00.01
Peak level 98.4 %
Track quality 100.0 %
Test CRC B6168B6C
Copy CRC B6168B6C
Accurately ripped (confidence 23) [B845AC01]
Copy OK
Track 8
Filename E:\EAC rip\08 - Out From The Deep.wav
Peak level 99.0 %
Track quality 100.0 %
Test CRC E78C3107
Copy CRC E78C3107
Accurately ripped (confidence 23) [CD4D5EA0]
Copy OK
Track 9
Filename E:\EAC rip\09 - The CROSS Of Changes.wav
Peak level 63.3 %
Track quality 100.0 %
Test CRC C22CE901
Copy CRC C22CE901
Accurately ripped (confidence 23) [3A5295C7]
Copy OK
All tracks accurately ripped
No errors occurred
End of status report
Лог EAC (1996) - Le Roi Est Mort, Vive Le Roi!
Exact Audio Copy V0.99 prebeta 4 from 23. January 2008
EAC extraction logfile from 20. September 2008, 22:34
Enigma / 3: Le Roi Est Mort, Vive Le Roi!
Used drive : PLEXTOR DVDR PX-716A Adapter: 0 ID: 0
Read mode : Secure
Utilize accurate stream : Yes
Defeat audio cache : Yes
Make use of C2 pointers : No
Read offset correction : 30
Overread into Lead-In and Lead-Out : No
Fill up missing offset samples with silence : Yes
Delete leading and trailing silent blocks : No
Null samples used in CRC calculations : Yes
Used interface : Native Win32 interface for Win NT & 2000
Gap handling : Appended to previous track
Used output format : User Defined Encoder
Selected bitrate : 128 kBit/s
Quality : High
Add ID3 tag : No
Command line compressor : C:\Program Files\FLAC\flac.exe
Additional command line options : -8 -V -T "ARTIST=%a" -T "TITLE=%t" -T "ALBUM=%g" -T "DATE=%y" -T "TRACKNUMBER=%n" -T "GENRE=%m" -T "COMMENT=EAC FLAC -8" %s
TOC of the extracted CD
Track | Start | Length | Start sector | End sector
---------------------------------------------------------
1 | 0:00.32 | 1:57.73 | 32 | 8879
2 | 1:58.30 | 5:47.62 | 8880 | 34966
3 | 7:46.17 | 0:19.13 | 34967 | 36404
4 | 8:05.30 | 5:00.02 | 36405 | 58906
5 | 13:05.32 | 4:59.28 | 58907 | 81359
6 | 18:04.60 | 4:21.15 | 81360 | 100949
7 | 22:26.00 | 5:06.05 | 100950 | 123904
8 | 27:32.05 | 4:26.05 | 123905 | 143859
9 | 31:58.10 | 3:26.17 | 143860 | 159326
10 | 35:24.27 | 3:38.38 | 159327 | 175714
11 | 39:02.65 | 4:55.12 | 175715 | 197851
12 | 43:58.02 | 1:40.68 | 197852 | 205419
Track 1
Filename E:\EAC rip\01 - Le Roi Est Mort, Vive Le Roi!.wav
Pre-gap length 0:00:02.32
Peak level 59.1 %
Track quality 100.0 %
Test CRC AE92A807
Copy CRC AE92A807
Accurately ripped (confidence 127) [D4ACA900]
Copy OK
Track 2
Filename E:\EAC rip\02 - Morphing Thru Time.wav
Pre-gap length 0:00:00.01
Peak level 100.0 %
Track quality 100.0 %
Test CRC 2F4DAB15
Copy CRC 2F4DAB15
Accurately ripped (confidence 128) [DD7B165E]
Copy OK
Track 3
Filename E:\EAC rip\03 - Third Of Its Kind.wav
Peak level 34.9 %
Track quality 100.0 %
Test CRC 8DA50DC0
Copy CRC 8DA50DC0
Accurately ripped (confidence 128) [D323770C]
Copy OK
Track 4
Filename E:\EAC rip\04 - Beyond The Invisible.wav
Peak level 99.0 %
Track quality 100.0 %
Test CRC 31D9115D
Copy CRC 31D9115D
Accurately ripped (confidence 128) [5B24AEA1]
Copy OK
Track 5
Filename E:\EAC rip\05 - Why! ....wav
Pre-gap length 0:00:00.01
Peak level 100.0 %
Track quality 100.0 %
Test CRC E665F45F
Copy CRC E665F45F
Accurately ripped (confidence 128) [A24D8700]
Copy OK
Track 6
Filename E:\EAC rip\06 - Shadows In Silence.wav
Peak level 99.0 %
Track quality 100.0 %
Test CRC E72F0587
Copy CRC E72F0587
Accurately ripped (confidence 128) [0936EDF0]
Copy OK
Track 7
Filename E:\EAC rip\07 - The Child In Us.wav
Peak level 99.3 %
Track quality 100.0 %
Test CRC 874DCA9E
Copy CRC 874DCA9E
Accurately ripped (confidence 127) [8EE1490E]
Copy OK
Track 8
Filename E:\EAC rip\08 - T.N.T. For The Brain.wav
Peak level 100.0 %
Track quality 100.0 %
Test CRC 68105142
Copy CRC 68105142
Accurately ripped (confidence 127) [43D7BC87]
Copy OK
Track 9
Filename E:\EAC rip\09 - Almost Full Moon.wav
Pre-gap length 0:00:00.01
Peak level 99.9 %
Track quality 99.9 %
Test CRC 6C20CFD5
Copy CRC 6C20CFD5
Accurately ripped (confidence 128) [B77B82EA]
Copy OK
Track 10
Filename E:\EAC rip\10 - The Roundabout.wav
Pre-gap length 0:00:00.01
Peak level 99.3 %
Track quality 99.9 %
Test CRC 1BB80298
Copy CRC 1BB80298
Accurately ripped (confidence 128) [7711CD13]
Copy OK
Track 11
Filename E:\EAC rip\11 - Prism Of Life.wav
Peak level 99.0 %
Track quality 100.0 %
Test CRC A71B783A
Copy CRC A71B783A
Accurately ripped (confidence 127) [143E37BB]
Copy OK
Track 12
Filename E:\EAC rip\12 - Odyssey Of The Mind.wav
Peak level 47.9 %
Track quality 100.0 %
Test CRC 96419C4D
Copy CRC 96419C4D
Accurately ripped (confidence 128) [13F4E36F]
Copy OK
All tracks accurately ripped
No errors occurred
End of status report
Лог EAC (2000) - The Screen Behind the Mirror
Exact Audio Copy V0.99 prebeta 4 from 23. January 2008
EAC extraction logfile from 21. September 2008, 0:22
Enigma / The Screen Behind the Mirror
Used drive : PLEXTOR DVDR PX-716A Adapter: 0 ID: 0
Read mode : Secure
Utilize accurate stream : Yes
Defeat audio cache : Yes
Make use of C2 pointers : No
Read offset correction : 30
Overread into Lead-In and Lead-Out : No
Fill up missing offset samples with silence : Yes
Delete leading and trailing silent blocks : No
Null samples used in CRC calculations : Yes
Used interface : Native Win32 interface for Win NT & 2000
Gap handling : Appended to previous track
Used output format : User Defined Encoder
Selected bitrate : 128 kBit/s
Quality : High
Add ID3 tag : No
Command line compressor : C:\Program Files\FLAC\flac.exe
Additional command line options : -8 -V -T "ARTIST=%a" -T "TITLE=%t" -T "ALBUM=%g" -T "DATE=%y" -T "TRACKNUMBER=%n" -T "GENRE=%m" -T "COMMENT=EAC FLAC -8" %s
TOC of the extracted CD
Track | Start | Length | Start sector | End sector
---------------------------------------------------------
1 | 0:00.32 | 2:04.30 | 32 | 9361
2 | 2:04.62 | 6:26.68 | 9362 | 38379
3 | 8:31.55 | 3:58.57 | 38380 | 56286
4 | 12:30.37 | 4:57.25 | 56287 | 78586
5 | 17:27.62 | 3:50.45 | 78587 | 95881
6 | 21:18.32 | 4:11.48 | 95882 | 114754
7 | 25:30.05 | 3:58.57 | 114755 | 132661
8 | 29:28.62 | 3:06.15 | 132662 | 146626
9 | 32:35.02 | 1:27.65 | 146627 | 153216
10 | 34:02.67 | 4:09.55 | 153217 | 171946
11 | 38:12.47 | 5:19.35 | 171947 | 195906
Track 1
Filename E:\EAC rip\01 - The Gate.wav
Pre-gap length 0:00:02.32
Peak level 99.0 %
Track quality 100.0 %
Test CRC E9B7230A
Copy CRC E9B7230A
Accurately ripped (confidence 80) [8B49FFAC]
Copy OK
Track 2
Filename E:\EAC rip\02 - Push the Limits.wav
Peak level 99.0 %
Track quality 100.0 %
Test CRC B778914F
Copy CRC B778914F
Accurately ripped (confidence 79) [FC317542]
Copy OK
Track 3
Filename E:\EAC rip\03 - Gravity of Love.wav
Pre-gap length 0:00:00.01
Peak level 99.0 %
Track quality 99.9 %
Test CRC 5CDFF48D
Copy CRC 5CDFF48D
Accurately ripped (confidence 79) [F270CD0F]
Copy OK
Track 4
Filename E:\EAC rip\04 - Smell of Desire.wav
Peak level 99.0 %
Track quality 100.0 %
Test CRC CD7F7463
Copy CRC CD7F7463
Accurately ripped (confidence 78) [900D74D2]
Copy OK
Track 5
Filename E:\EAC rip\05 - Modern Crusaders.wav
Peak level 99.0 %
Track quality 100.0 %
Test CRC B7D9A4E0
Copy CRC B7D9A4E0
Accurately ripped (confidence 78) [15EA84E1]
Copy OK
Track 6
Filename E:\EAC rip\06 - Traces (Light and Weight).wav
Peak level 99.0 %
Track quality 100.0 %
Test CRC 18312DA6
Copy CRC 18312DA6
Accurately ripped (confidence 77) [E99D5992]
Copy OK
Track 7
Filename E:\EAC rip\07 - The Screen Behind the Mirror.wav
Pre-gap length 0:00:00.01
Peak level 99.0 %
Track quality 99.9 %
Test CRC 8B970011
Copy CRC 8B970011
Accurately ripped (confidence 75) [7DD086B0]
Copy OK
Track 8
Filename E:\EAC rip\08 - Endless Quest.wav
Pre-gap length 0:00:00.01
Peak level 99.0 %
Track quality 100.0 %
Test CRC 9CCDF540
Copy CRC 9CCDF540
Accurately ripped (confidence 76) [55881A37]
Copy OK
Track 9
Filename E:\EAC rip\09 - Camera Obscura.wav
Pre-gap length 0:00:00.01
Peak level 99.0 %
Track quality 100.0 %
Test CRC 080BBA57
Copy CRC 080BBA57
Accurately ripped (confidence 77) [EE434A62]
Copy OK
Track 10
Filename E:\EAC rip\10 - Between Mind & Heart.wav
Peak level 99.0 %
Track quality 99.9 %
Test CRC 2DE5B8E3
Copy CRC 2DE5B8E3
Accurately ripped (confidence 77) [271D7EBB]
Copy OK
Track 11
Filename E:\EAC rip\11 - Silence Must Be Heard.wav
Pre-gap length 0:00:00.01
Peak level 99.0 %
Track quality 99.9 %
Test CRC ECC005EB
Copy CRC ECC005EB
Accurately ripped (confidence 74) [9F77769D]
Copy OK
All tracks accurately ripped
No errors occurred
End of status report
Лог EAC (2003) - Voyageur
Exact Audio Copy V0.99 prebeta 4 from 23. January 2008
EAC extraction logfile from 24. September 2008, 2:28
Enigma / Voyageur
Used drive : PIONEER DVD-RW DVR-109 Adapter: 1 ID: 2
Read mode : Secure
Utilize accurate stream : Yes
Defeat audio cache : Yes
Make use of C2 pointers : No
Read offset correction : 48
Overread into Lead-In and Lead-Out : No
Fill up missing offset samples with silence : Yes
Delete leading and trailing silent blocks : No
Null samples used in CRC calculations : Yes
Used interface : Native Win32 interface for Win NT & 2000
Gap handling : Appended to previous track
Used output format : User Defined Encoder
Selected bitrate : 128 kBit/s
Quality : High
Add ID3 tag : No
Command line compressor : C:\Program Files\FLAC\flac.exe
Additional command line options : -8 -V -T "ARTIST=%a" -T "TITLE=%t" -T "ALBUM=%g" -T "DATE=%y" -T "TRACKNUMBER=%n" -T "GENRE=%m" -T "COMMENT=EAC FLAC -8" %s
TOC of the extracted CD
Track | Start | Length | Start sector | End sector
---------------------------------------------------------
1 | 0:00.32 | 4:11.35 | 32 | 18891
2 | 4:11.67 | 4:36.35 | 18892 | 39626
3 | 8:48.27 | 4:23.18 | 39627 | 59369
4 | 13:11.45 | 7:01.14 | 59370 | 90958
5 | 20:12.59 | 4:29.05 | 90959 | 111138
6 | 24:41.64 | 2:16.61 | 111139 | 121399
7 | 26:58.50 | 3:43.25 | 121400 | 138149
8 | 30:42.00 | 5:35.17 | 138150 | 163291
9 | 36:17.17 | 2:15.25 | 163292 | 173441
10 | 38:32.42 | 3:00.20 | 173442 | 186961
11 | 41:32.62 | 5:47.70 | 186962 | 213056
12 | 49:52.57 | 24:05.18 | 224457 | 332849
Track 1
Filename D:\EAC_rip\01 - From East to West.wav
Pre-gap length 0:00:02.42
Peak level 99.0 %
Track quality 99.9 %
Test CRC 68D40D49
Copy CRC 68D40D49
Cannot be verified as accurate (confidence 7) [2F06F85D], AccurateRip returned [371C99FC]
Copy OK
Track 2
Filename D:\EAC_rip\02 - Voyageur.wav
Peak level 99.0 %
Track quality 100.0 %
Test CRC DA8FCB70
Copy CRC DA8FCB70
Cannot be verified as accurate (confidence 5) [B470B8B0], AccurateRip returned [F1A2B8A7]
Copy OK
Track 3
Filename D:\EAC_rip\03 - Incognito.wav
Peak level 99.0 %
Track quality 100.0 %
Test CRC 5F1E411F
Copy CRC 5F1E411F
Cannot be verified as accurate (confidence 6) [7208C8FC], AccurateRip returned [F108494B]
Copy OK
Track 4
Filename D:\EAC_rip\04 - Page of Cups.wav
Pre-gap length 0:00:00.26
Peak level 100.0 %
Track quality 99.9 %
Test CRC 40140F57
Copy CRC 40140F57
Cannot be verified as accurate (confidence 7) [0E050DEB], AccurateRip returned [2CAB6419]
Copy OK
Track 5
Filename D:\EAC_rip\05 - Boum-Boum.wav
Pre-gap length 0:00:00.17
Peak level 99.0 %
Track quality 100.0 %
Test CRC 61291254
Copy CRC 61291254
Cannot be verified as accurate (confidence 6) [482E8356], AccurateRip returned [54BA4B59]
Copy OK
Track 6
Filename D:\EAC_rip\06 - Total Eclipse of the Moon.wav
Peak level 99.0 %
Track quality 99.7 %
Test CRC AF4156F2
Copy CRC AF4156F2
Cannot be verified as accurate (confidence 9) [30E06516], AccurateRip returned [91A0A135]
Copy OK
Track 7
Filename D:\EAC_rip\07 - Look of Today.wav
Pre-gap length 0:00:00.05
Peak level 99.4 %
Track quality 99.7 %
Test CRC 96A91C8B
Copy CRC 96A91C8B
Cannot be verified as accurate (confidence 7) [99D54ED9], AccurateRip returned [38AF2197]
Copy OK
Track 8
Filename D:\EAC_rip\08 - In the Shadow, in the Light.wav
Peak level 99.7 %
Track quality 99.8 %
Test CRC 9B350E8F
Copy CRC 9B350E8F
Cannot be verified as accurate (confidence 4) [6E8B0F82], AccurateRip returned [12E06F3D]
Copy OK
Track 9
Filename D:\EAC_rip\09 - Weightless.wav
Peak level 99.0 %
Track quality 99.9 %
Test CRC E86FEAE0
Copy CRC E86FEAE0
Cannot be verified as accurate (confidence 2) [B53EEA88], AccurateRip returned [49C38149]
Copy OK
Track 10
Filename D:\EAC_rip\10 - The Piano.wav
Peak level 99.0 %
Track quality 99.8 %
Test CRC 61C57DA1
Copy CRC 61C57DA1
Cannot be verified as accurate (confidence 5) [608C6BC3], AccurateRip returned [2D3D83B3]
Copy OK
Track 11
Filename D:\EAC_rip\11 - Following the Sun.wav
Pre-gap length 0:00:00.06
Peak level 99.0 %
Track quality 100.0 %
Test CRC EF2CC31D
Copy CRC EF2CC31D
Cannot be verified as accurate (confidence 3) [67B33643], AccurateRip returned [98FFE933]
Copy OK
No tracks could be verified as accurate
You may have a different pressing from the one(s) in the database
No errors occurred
End of status report
Лог EAC (2006) - A Posteriori
Exact Audio Copy V0.99 prebeta 4 from 23. January 2008
EAC extraction logfile from 21. September 2008, 18:28
Enigma / A Posteriori
Used drive : PLEXTOR DVDR PX-716A Adapter: 0 ID: 0
Read mode : Secure
Utilize accurate stream : Yes
Defeat audio cache : Yes
Make use of C2 pointers : No
Read offset correction : 30
Overread into Lead-In and Lead-Out : No
Fill up missing offset samples with silence : Yes
Delete leading and trailing silent blocks : No
Null samples used in CRC calculations : Yes
Used interface : Native Win32 interface for Win NT & 2000
Gap handling : Appended to previous track
Used output format : User Defined Encoder
Selected bitrate : 128 kBit/s
Quality : High
Add ID3 tag : No
Command line compressor : C:\Program Files\FLAC\flac.exe
Additional command line options : -8 -V -T "ARTIST=%a" -T "TITLE=%t" -T "ALBUM=%g" -T "DATE=%y" -T "TRACKNUMBER=%n" -T "GENRE=%m" -T "COMMENT=EAC FLAC -8" %s
TOC of the extracted CD
Track | Start | Length | Start sector | End sector
---------------------------------------------------------
1 | 0:00.00 | 3:41.12 | 0 | 16586
2 | 3:41.12 | 4:50.11 | 16587 | 38347
3 | 8:31.23 | 4:26.04 | 38348 | 58301
4 | 12:57.27 | 4:25.24 | 58302 | 78200
5 | 17:22.51 | 3:39.70 | 78201 | 94695
6 | 21:02.46 | 4:55.27 | 94696 | 116847
7 | 25:57.73 | 3:09.67 | 116848 | 131089
8 | 29:07.65 | 5:08.49 | 131090 | 154238
9 | 34:16.39 | 4:23.06 | 154239 | 173969
10 | 38:39.45 | 4:21.33 | 173970 | 193577
11 | 43:01.03 | 4:41.26 | 193578 | 214678
12 | 47:42.29 | 5:58.02 | 214679 | 241530
Track 1
Filename E:\EAC rip\01 - Enigma , Eppur Si Muove.wav
Pre-gap length 0:00:02.00
Peak level 99.0 %
Track quality 99.9 %
Test CRC EC6BCFFE
Copy CRC EC6BCFFE
Accurately ripped (confidence 48) [BFF6C1E6]
Copy OK
Track 2
Filename E:\EAC rip\02 - Feel Me Heaven.wav
Peak level 99.0 %
Track quality 100.0 %
Test CRC 3C6268B4
Copy CRC 3C6268B4
Accurately ripped (confidence 49) [82DE7CA2]
Copy OK
Track 3
Filename E:\EAC rip\03 - Dreaming Of Andromeda.wav
Pre-gap length 0:00:00.03
Peak level 99.0 %
Track quality 100.0 %
Test CRC 924D2C8C
Copy CRC 924D2C8C
Accurately ripped (confidence 49) [8B93DC72]
Copy OK
Track 4
Filename E:\EAC rip\04 - Dancing With Mephisto.wav
Peak level 99.6 %
Track quality 99.9 %
Test CRC 3F2DD521
Copy CRC 3F2DD521
Accurately ripped (confidence 49) [CD0FB850]
Copy OK
Track 5
Filename E:\EAC rip\05 - Northern Lights.wav
Peak level 99.0 %
Track quality 100.0 %
Test CRC A9950423
Copy CRC A9950423
Accurately ripped (confidence 50) [49D8B662]
Copy OK
Track 6
Filename E:\EAC rip\06 - Invisible Love.wav
Peak level 99.0 %
Track quality 100.0 %
Test CRC 77DE9CE7
Copy CRC 77DE9CE7
Accurately ripped (confidence 49) [8B9BDA33]
Copy OK
Track 7
Filename E:\EAC rip\07 - Message From 10.wav
Peak level 99.0 %
Track quality 100.0 %
Test CRC 6F32C6A5
Copy CRC 6F32C6A5
Accurately ripped (confidence 50) [D182EEE2]
Copy OK
Track 8
Filename E:\EAC rip\08 - Hello & Welcome.wav
Peak level 99.0 %
Track quality 100.0 %
Test CRC 07CBC44A
Copy CRC 07CBC44A
Accurately ripped (confidence 49) [30F2E3B2]
Copy OK
Track 9
Filename E:\EAC rip\09 - 20.000 Miles Over The Sea.wav
Peak level 99.2 %
Track quality 100.0 %
Test CRC EF0763F4
Copy CRC EF0763F4
Accurately ripped (confidence 49) [7C703920]
Copy OK
Track 10
Filename E:\EAC rip\10 - Sitting On The Moon.wav
Peak level 99.0 %
Track quality 100.0 %
Test CRC 368BB0F9
Copy CRC 368BB0F9
Accurately ripped (confidence 49) [202BE0E0]
Copy OK
Track 11
Filename E:\EAC rip\11 - The Alchemist.wav
Peak level 99.1 %
Track quality 100.0 %
Test CRC 1563A2C8
Copy CRC 1563A2C8
Accurately ripped (confidence 49) [1C599BF0]
Copy OK
Track 12
Filename E:\EAC rip\12 - Goodbye Milky Way.wav
Peak level 99.1 %
Track quality 100.0 %
Test CRC BF60EE7A
Copy CRC BF60EE7A
Accurately ripped (confidence 48) [3623B0A8]
Copy OK
All tracks accurately ripped
No errors occurred
End of status report
Лог EAC (2008) - Enigma - Seven Lives Many Faces (Limited Edition, 2CD)
Лог EAC CD1 (2008) - Enigma - Seven Lives Many Faces (Limited Edition, 2CD)
Exact Audio Copy V0.99 prebeta 4 from 23. January 2008
EAC extraction logfile from 21. September 2008, 14:39
Enigma / Seven Lives Many Faces (CD 1)
Used drive : PLEXTOR DVDR PX-716A Adapter: 0 ID: 0
Read mode : Secure
Utilize accurate stream : Yes
Defeat audio cache : Yes
Make use of C2 pointers : No
Read offset correction : 30
Overread into Lead-In and Lead-Out : No
Fill up missing offset samples with silence : Yes
Delete leading and trailing silent blocks : No
Null samples used in CRC calculations : Yes
Used interface : Native Win32 interface for Win NT & 2000
Gap handling : Appended to previous track
Used output format : User Defined Encoder
Selected bitrate : 128 kBit/s
Quality : High
Add ID3 tag : No
Command line compressor : C:\Program Files\FLAC\flac.exe
Additional command line options : -8 -V -T "ARTIST=%a" -T "TITLE=%t" -T "ALBUM=%g" -T "DATE=%y" -T "TRACKNUMBER=%n" -T "GENRE=%m" -T "COMMENT=EAC FLAC -8" %s
TOC of the extracted CD
Track | Start | Length | Start sector | End sector
---------------------------------------------------------
1 | 0:00.00 | 3:12.61 | 0 | 14460
2 | 3:12.61 | 4:25.21 | 14461 | 34356
3 | 7:38.07 | 3:35.63 | 34357 | 50544
4 | 11:13.70 | 5:19.55 | 50545 | 74524
5 | 16:33.50 | 3:23.44 | 74525 | 89793
6 | 19:57.19 | 3:51.39 | 89794 | 107157
7 | 23:48.58 | 3:28.20 | 107158 | 122777
8 | 27:17.03 | 4:11.38 | 122778 | 141640
9 | 31:28.41 | 4:18.69 | 141641 | 161059
10 | 35:47.35 | 2:56.19 | 161060 | 174278
11 | 38:43.54 | 4:31.34 | 174279 | 194637
12 | 43:15.13 | 4:20.60 | 194638 | 214197
13 | 50:07.73 | 0:17.03 | 225598 | 226875
Track 1
Filename E:\EAC rip\01 - Encounters.wav
Pre-gap length 0:00:02.00
Peak level 95.0 %
Track quality 100.0 %
Test CRC BDBF1D07
Copy CRC BDBF1D07
Track not present in AccurateRip database
Copy OK
Track 2
Filename E:\EAC rip\02 - Seven Lives.wav
Peak level 99.1 %
Track quality 100.0 %
Test CRC B013FAEA
Copy CRC B013FAEA
Track not present in AccurateRip database
Copy OK
Track 3
Filename E:\EAC rip\03 - Touchness.wav
Peak level 99.0 %
Track quality 99.9 %
Test CRC 90B2A16E
Copy CRC 90B2A16E
Track not present in AccurateRip database
Copy OK
Track 4
Filename E:\EAC rip\04 - The Same Parents.wav
Peak level 99.0 %
Track quality 100.0 %
Test CRC F5350DAA
Copy CRC F5350DAA
Track not present in AccurateRip database
Copy OK
Track 5
Filename E:\EAC rip\05 - Fata Morgana.wav
Peak level 99.9 %
Track quality 100.0 %
Test CRC BDB6139E
Copy CRC BDB6139E
Track not present in AccurateRip database
Copy OK
Track 6
Filename E:\EAC rip\06 - Hell's Heaven.wav
Peak level 99.0 %
Track quality 100.0 %
Test CRC 700BD859
Copy CRC 700BD859
Track not present in AccurateRip database
Copy OK
Track 7
Filename E:\EAC rip\07 - La Puerta Del Cielo.wav
Peak level 99.0 %
Track quality 100.0 %
Test CRC C4240C2A
Copy CRC C4240C2A
Track not present in AccurateRip database
Copy OK
Track 8
Filename E:\EAC rip\08 - Distorted Love.wav
Peak level 99.0 %
Track quality 100.0 %
Test CRC 08AE6A72
Copy CRC 08AE6A72
Track not present in AccurateRip database
Copy OK
Track 9
Filename E:\EAC rip\09 - Je T'aime Till My Dying Day.wav
Peak level 99.8 %
Track quality 100.0 %
Test CRC 3943407D
Copy CRC 3943407D
Track not present in AccurateRip database
Copy OK
Track 10
Filename E:\EAC rip\10 - Dйjб Vu.wav
Peak level 99.0 %
Track quality 100.0 %
Test CRC 1814D372
Copy CRC 1814D372
Track not present in AccurateRip database
Copy OK
Track 11
Filename E:\EAC rip\11 - Between Generations.wav
Peak level 99.0 %
Track quality 100.0 %
Test CRC F2A39C0E
Copy CRC F2A39C0E
Track not present in AccurateRip database
Copy OK
Track 12
Filename E:\EAC rip\12 - The Language Of Sound.wav
Peak level 99.0 %
Track quality 100.0 %
Test CRC 10CABE83
Copy CRC 10CABE83
Track not present in AccurateRip database
Copy OK
None of the tracks are present in the AccurateRip database
No errors occurred
End of status report
Лог EAC CD2(2008) - Enigma - Seven Lives Many Faces (Limited Edition, 2CD)
Exact Audio Copy V0.99 prebeta 4 from 23. January 2008
EAC extraction logfile from 21. September 2008, 15:05
Enigma / Seven Lives Many Faces (CD 2)
Used drive : PLEXTOR DVDR PX-716A Adapter: 0 ID: 0
Read mode : Secure
Utilize accurate stream : Yes
Defeat audio cache : Yes
Make use of C2 pointers : No
Read offset correction : 30
Overread into Lead-In and Lead-Out : No
Fill up missing offset samples with silence : Yes
Delete leading and trailing silent blocks : No
Null samples used in CRC calculations : Yes
Used interface : Native Win32 interface for Win NT & 2000
Gap handling : Appended to previous track
Used output format : User Defined Encoder
Selected bitrate : 128 kBit/s
Quality : High
Add ID3 tag : No
Command line compressor : C:\Program Files\FLAC\flac.exe
Additional command line options : -8 -V -T "ARTIST=%a" -T "TITLE=%t" -T "ALBUM=%g" -T "DATE=%y" -T "TRACKNUMBER=%n" -T "GENRE=%m" -T "COMMENT=EAC FLAC -8" %s
TOC of the extracted CD
Track | Start | Length | Start sector | End sector
---------------------------------------------------------
1 | 0:00.00 | 2:58.21 | 0 | 13370
2 | 2:58.21 | 3:51.25 | 13371 | 30720
3 | 6:49.46 | 2:08.20 | 30721 | 40340
4 | 8:57.66 | 2:38.10 | 40341 | 52200
5 | 11:36.01 | 3:56.57 | 52201 | 69957
Track 1
Filename E:\EAC rip\01 - Superficial.wav
Pre-gap length 0:00:02.00
Peak level 99.0 %
Track quality 100.0 %
Test CRC EBB5491E
Copy CRC EBB5491E
Track not present in AccurateRip database
Copy OK
Track 2
Filename E:\EAC rip\02 - We Are Nature.wav
Peak level 99.0 %
Track quality 100.0 %
Test CRC FCF211BA
Copy CRC FCF211BA
Track not present in AccurateRip database
Copy OK
Track 3
Filename E:\EAC rip\03 - Downtown Silence.wav
Peak level 99.0 %
Track quality 100.0 %
Test CRC 2862695E
Copy CRC 2862695E
Track not present in AccurateRip database
Copy OK
Track 4
Filename E:\EAC rip\04 - Sunrise.wav
Pre-gap length 0:00:00.01
Peak level 99.0 %
Track quality 100.0 %
Test CRC 727DE562
Copy CRC 727DE562
Track not present in AccurateRip database
Copy OK
Track 5
Filename E:\EAC rip\05 - The Language Of Sound (Slow Edit).wav
Pre-gap length 0:00:00.01
Peak level 99.0 %
Track quality 99.9 %
Test CRC 63D46C98
Copy CRC 63D46C98
Track not present in AccurateRip database
Copy OK
None of the tracks are present in the AccurateRip database
No errors occurred
End of status report
Сборники Enigma
Лог EAC (2001) - Love Sensuality Devotion - The Greatest Hits
Exact Audio Copy V0.99 prebeta 4 from 23. January 2008
EAC extraction logfile from 20. September 2008, 23:00
Enigma / LSD - Love Sensuality Devotion
Used drive : PIONEER DVD-RW DVR-K16RS Adapter: 1 ID: 0
Read mode : Secure
Utilize accurate stream : Yes
Defeat audio cache : Yes
Make use of C2 pointers : No
Read offset correction : 48
Overread into Lead-In and Lead-Out : No
Fill up missing offset samples with silence : Yes
Delete leading and trailing silent blocks : No
Null samples used in CRC calculations : Yes
Used interface : Native Win32 interface for Win NT & 2000
Gap handling : Not detected, thus appended to previous track
Used output format : User Defined Encoder
Selected bitrate : 128 kBit/s
Quality : High
Add ID3 tag : No
Command line compressor : C:\Programme\Exact Audio Copy\Flac\flac.exe
Additional command line options : -8 -V -T "ARTIST=%a" -T "TITLE=%t" -T "ALBUM=%g" -T "DATE=%y" -T "TRACKNUMBER=%n" -T "GENRE=%v" -T "COMMENT=EAC FLACK -8" %s
TOC of the extracted CD
Track | Start | Length | Start sector | End sector
---------------------------------------------------------
1 | 0:00.32 | 1:05.65 | 32 | 4971
2 | 1:06.22 | 3:51.25 | 4972 | 22321
3 | 4:57.47 | 3:58.65 | 22322 | 40236
4 | 8:56.37 | 5:17.70 | 40237 | 64081
5 | 14:14.32 | 3:53.40 | 64082 | 81596
6 | 18:07.72 | 4:19.13 | 81597 | 101034
7 | 22:27.10 | 4:15.25 | 101035 | 120184
8 | 26:42.35 | 8:01.45 | 120185 | 156304
9 | 34:44.05 | 3:08.45 | 156305 | 170449
10 | 37:52.50 | 4:15.40 | 170450 | 189614
11 | 42:08.15 | 4:46.27 | 189615 | 211091
12 | 46:54.42 | 4:32.35 | 211092 | 231526
13 | 51:27.02 | 4:31.00 | 231527 | 251851
14 | 55:58.02 | 3:48.15 | 251852 | 268966
15 | 59:46.17 | 4:50.15 | 268967 | 290731
16 | 64:36.32 | 4:10.33 | 290732 | 309514
17 | 68:46.65 | 5:25.42 | 309515 | 333931
18 | 74:12.32 | 2:15.25 | 333932 | 344081
Track 1
Filename C:\Programme\Exact Audio Copy\Flac\01 - The Landing.wav
Peak level 42.8 %
Track quality 100.0 %
Copy CRC F1B2EEDE
Accurately ripped (confidence 42) [CAFE8191]
Copy OK
Track 2
Filename C:\Programme\Exact Audio Copy\Flac\02 - Turn Around.wav
Peak level 99.0 %
Track quality 100.0 %
Copy CRC A87494E2
Accurately ripped (confidence 42) [C7C495F0]
Copy OK
Track 3
Filename C:\Programme\Exact Audio Copy\Flac\03 - Gravity of Love.wav
Peak level 99.0 %
Track quality 100.0 %
Copy CRC 4040E902
Accurately ripped (confidence 42) [D235579B]
Copy OK
Track 4
Filename C:\Programme\Exact Audio Copy\Flac\04 - T.N.T. for the Brain.wav
Peak level 99.0 %
Track quality 100.0 %
Copy CRC ECF6D553
Accurately ripped (confidence 41) [C40C111B]
Copy OK
Track 5
Filename C:\Programme\Exact Audio Copy\Flac\05 - Modern Crusaders.wav
Peak level 99.0 %
Track quality 100.0 %
Copy CRC E58B5249
Accurately ripped (confidence 42) [6D5305C1]
Copy OK
Track 6
Filename C:\Programme\Exact Audio Copy\Flac\06 - Shadows in Silence.wav
Peak level 99.0 %
Track quality 100.0 %
Copy CRC 0B0DC401
Accurately ripped (confidence 42) [7E724CC5]
Copy OK
Track 7
Filename C:\Programme\Exact Audio Copy\Flac\07 - Return to Innocence.wav
Peak level 99.0 %
Track quality 99.8 %
Copy CRC 1D79B175
Cannot be verified as accurate (confidence 37) [73E7C66C], AccurateRip returned [EB093FFB]
Copy OK
Track 8
Filename C:\Programme\Exact Audio Copy\Flac\08 - I love you ... I'll kill you.wav
Peak level 99.0 %
Track quality 100.0 %
Copy CRC 42A785E0
Accurately ripped (confidence 42) [EC26A126]
Copy OK
Track 9
Filename C:\Programme\Exact Audio Copy\Flac\09 - Principles of Lust.wav
Peak level 99.0 %
Track quality 99.9 %
Copy CRC BD8D0A21
Accurately ripped (confidence 42) [9FBA0C02]
Copy OK
Track 10
Filename C:\Programme\Exact Audio Copy\Flac\10 - Sadeness (Part I).wav
Peak level 99.0 %
Track quality 100.0 %
Copy CRC BDB309A5
Accurately ripped (confidence 38) [9B08A221]
Copy OK
Track 11
Filename C:\Programme\Exact Audio Copy\Flac\11 - Silence must be heard.wav
Peak level 99.0 %
Track quality 100.0 %
Copy CRC 3FF871B7
Accurately ripped (confidence 41) [FB4AEA77]
Copy OK
Track 12
Filename C:\Programme\Exact Audio Copy\Flac\12 - Smell of Desire.wav
Peak level 99.0 %
Track quality 100.0 %
Copy CRC DBE6E61A
Accurately ripped (confidence 41) [74F63005]
Copy OK
Track 13
Filename C:\Programme\Exact Audio Copy\Flac\13 - Mea Culpa.wav
Peak level 99.0 %
Track quality 100.0 %
Copy CRC 304F74FB
Accurately ripped (confidence 42) [719DC11F]
Copy OK
Track 14
Filename C:\Programme\Exact Audio Copy\Flac\14 - Push the limits.wav
Peak level 99.0 %
Track quality 100.0 %
Copy CRC 80FD0BFE
Accurately ripped (confidence 41) [423444B7]
Copy OK
Track 15
Filename C:\Programme\Exact Audio Copy\Flac\15 - Beyond the Invisible.wav
Peak level 99.0 %
Track quality 99.9 %
Copy CRC 3E85D124
Accurately ripped (confidence 40) [D86E9881]
Copy OK
Track 16
Filename C:\Programme\Exact Audio Copy\Flac\16 - Age of Loneliness.wav
Peak level 99.0 %
Track quality 100.0 %
Copy CRC 9A66F446
Accurately ripped (confidence 42) [C2DA1597]
Copy OK
Track 17
Filename C:\Programme\Exact Audio Copy\Flac\17 - Morphing thru time.wav
Peak level 99.0 %
Track quality 100.0 %
Copy CRC 111454ED
Accurately ripped (confidence 41) [8612239E]
Copy OK
Track 18
Filename C:\Programme\Exact Audio Copy\Flac\18 - The Cross of Changes.wav
Peak level 72.9 %
Track quality 100.0 %
Copy CRC 3273B807
Accurately ripped (confidence 41) [2C6A3CE3]
Copy OK
17 track(s) accurately ripped
1 track(s) could not be verified as accurate
Some tracks could not be verified as accurate
No errors occurred
End of status report
Лог EAC (2001) - Love Sensuality Devotion - The Remix Collection
Exact Audio Copy V0.99 prebeta 4 from 23. January 2008
EAC extraction logfile from 20. September 2008, 23:45
Enigma / LSD - Love Sensuality Devotion (The Remix Collection)
Used drive : PIONEER DVD-RW DVR-K16RS Adapter: 1 ID: 0
Read mode : Secure
Utilize accurate stream : Yes
Defeat audio cache : Yes
Make use of C2 pointers : No
Read offset correction : 48
Overread into Lead-In and Lead-Out : No
Fill up missing offset samples with silence : Yes
Delete leading and trailing silent blocks : No
Null samples used in CRC calculations : Yes
Used interface : Native Win32 interface for Win NT & 2000
Gap handling : Not detected, thus appended to previous track
Used output format : User Defined Encoder
Selected bitrate : 128 kBit/s
Quality : High
Add ID3 tag : No
Command line compressor : C:\Programme\Exact Audio Copy\Flac\flac.exe
Additional command line options : -8 -V -T "ARTIST=%a" -T "TITLE=%t" -T "ALBUM=%g" -T "DATE=%y" -T "TRACKNUMBER=%n" -T "GENRE=%v" -T "COMMENT=EAC FLACK -8" %s
TOC of the extracted CD
Track | Start | Length | Start sector | End sector
---------------------------------------------------------
1 | 0:00.32 | 10:28.58 | 32 | 47189
2 | 10:29.15 | 6:15.07 | 47190 | 75321
3 | 16:44.22 | 7:51.33 | 75322 | 110679
4 | 24:35.55 | 5:59.30 | 110680 | 137634
5 | 30:35.10 | 5:42.25 | 137635 | 163309
6 | 36:17.35 | 4:43.22 | 163310 | 184556
7 | 41:00.57 | 4:55.72 | 184557 | 206753
8 | 45:56.54 | 6:04.41 | 206754 | 234094
9 | 52:01.20 | 5:56.37 | 234095 | 260831
Track 1
Filename C:\Programme\Exact Audio Copy\Flac\01 - Turn around (northern lights club mix).wav
Peak level 99.0 %
Track quality 100.0 %
Test CRC 0EB36696
Copy CRC 0EB36696
Accurately ripped (confidence 19) [1C131E2A]
Copy OK
Track 2
Filename C:\Programme\Exact Audio Copy\Flac\02 - Age of loneliness (enigmatic club mix).wav
Peak level 99.0 %
Track quality 100.0 %
Test CRC 69D1B51F
Copy CRC 69D1B51F
Accurately ripped (confidence 18) [97C9FD84]
Copy OK
Track 3
Filename C:\Programme\Exact Audio Copy\Flac\03 - Push the limits (ATB remix).wav
Peak level 99.0 %
Track quality 100.0 %
Test CRC 1B71CB5F
Copy CRC 1B71CB5F
Accurately ripped (confidence 17) [AB2002E2]
Copy OK
Track 4
Filename C:\Programme\Exact Audio Copy\Flac\04 - Gravity of love (Judgement da club mix).wav
Peak level 99.0 %
Track quality 100.0 %
Test CRC AF710A2D
Copy CRC AF710A2D
Accurately ripped (confidence 18) [648C0A29]
Copy OK
Track 5
Filename C:\Programme\Exact Audio Copy\Flac\05 - Return to innocence (380 midnight mix).wav
Peak level 99.0 %
Track quality 99.9 %
Test CRC 507A012C
Copy CRC 507A012C
Accurately ripped (confidence 18) [25E8943D]
Copy OK
Track 6
Filename C:\Programme\Exact Audio Copy\Flac\06 - Sadeness (part I) (violent U.S. remix).wav
Peak level 99.0 %
Track quality 100.0 %
Test CRC 334A207D
Copy CRC 334A207D
Accurately ripped (confidence 18) [94D8C444]
Copy OK
Track 7
Filename C:\Programme\Exact Audio Copy\Flac\07 - Principles of lust (everlasting lust mix).wav
Peak level 99.0 %
Track quality 100.0 %
Test CRC 8949F9CC
Copy CRC 8949F9CC
Accurately ripped (confidence 17) [F983A227]
Copy OK
Track 8
Filename C:\Programme\Exact Audio Copy\Flac\08 - Mea Culpa (fading shades mix).wav
Peak level 99.0 %
Track quality 100.0 %
Test CRC AAEEE787
Copy CRC AAEEE787
Accurately ripped (confidence 17) [265FCD58]
Copy OK
Track 9
Filename C:\Programme\Exact Audio Copy\Flac\09 - T.N.T. for the brain (midnight man mix).wav
Peak level 99.0 %
Track quality 100.0 %
Test CRC 5D798C22
Copy CRC 5D798C22
Accurately ripped (confidence 17) [4911D8F4]
Copy OK
All tracks accurately ripped
No errors occurred
End of status report
Лог EAC (2005) - The Dusted Variations (15 Years After - The Bonus CD)
Exact Audio Copy V0.99 prebeta 4 from 23. January 2008
EAC extraction logfile from 20. September 2008, 19:40
Enigma / 15 Years After
Used drive : PLEXTOR DVDR PX-760A Adapter: 1 ID: 0
Read mode : Secure
Utilize accurate stream : Yes
Defeat audio cache : Yes
Make use of C2 pointers : No
Read offset correction : 30
Overread into Lead-In and Lead-Out : No
Fill up missing offset samples with silence : Yes
Delete leading and trailing silent blocks : No
Null samples used in CRC calculations : Yes
Used interface : Native Win32 interface for Win NT & 2000
Gap handling : Appended to previous track
Used output format : User Defined Encoder
Selected bitrate : 320 kBit/s
Quality : High
Add ID3 tag : No
Command line compressor : C:\Program Files\FLAC\flac.exe
Additional command line options : -8 -V -T "ARTIST=%a" -T "TITLE=%t" -T "ALBUM=%g" -T "DATE=%y" -T "TRACKNUMBER=%n" -T "GENRE=%m" -T "COMMENT=EAC FLAC -8" %s
TOC of the extracted CD
Track | Start | Length | Start sector | End sector
---------------------------------------------------------
1 | 0:00.00 | 3:55.06 | 0 | 17630
2 | 3:55.06 | 4:17.17 | 17631 | 36922
3 | 8:12.23 | 5:23.14 | 36923 | 61161
4 | 13:35.37 | 9:02.12 | 61162 | 101823
5 | 22:37.49 | 6:56.46 | 101824 | 133069
6 | 29:34.20 | 5:28.65 | 133070 | 157734
7 | 35:03.10 | 7:34.35 | 157735 | 191819
8 | 42:37.45 | 1:41.44 | 191820 | 199438
9 | 44:19.14 | 4:39.24 | 199439 | 220387
Track 1
Filename C:\APE\Enigma\Album\2005 - The Dusted Variations (15 Years After - The Bonus CD)\01 - Hello & Welcome (The Single).wav
Pre-gap length 0:00:02.00
Peak level 99.0 %
Track quality 99.9 %
Test CRC 38E62F84
Copy CRC 38E62F84
Track not present in AccurateRip database
Copy OK
Track 2
Filename C:\APE\Enigma\Album\2005 - The Dusted Variations (15 Years After - The Bonus CD)\02 - The Cild In Us (Dusted Remix).wav
Peak level 57.9 %
Track quality 100.0 %
Test CRC 4B89BA17
Copy CRC 4B89BA17
Track not present in AccurateRip database
Copy OK
Track 3
Filename C:\APE\Enigma\Album\2005 - The Dusted Variations (15 Years After - The Bonus CD)\03 - Age Of Loneliness (Dusted Remix).wav
Peak level 65.2 %
Track quality 100.0 %
Test CRC C572387D
Copy CRC C572387D
Track not present in AccurateRip database
Copy OK
Track 4
Filename C:\APE\Enigma\Album\2005 - The Dusted Variations (15 Years After - The Bonus CD)\04 - Eyes Of Truth (Dusted Remix).wav
Peak level 99.0 %
Track quality 100.0 %
Test CRC 959F408F
Copy CRC 959F408F
Track not present in AccurateRip database
Copy OK
Track 5
Filename C:\APE\Enigma\Album\2005 - The Dusted Variations (15 Years After - The Bonus CD)\05 - Rivers Of Belief (Dusted Remix).wav
Peak level 65.0 %
Track quality 100.0 %
Test CRC 575E7AD2
Copy CRC 575E7AD2
Track not present in AccurateRip database
Copy OK
Track 6
Filename C:\APE\Enigma\Album\2005 - The Dusted Variations (15 Years After - The Bonus CD)\06 - Endless Quest (Dusted Remix).wav
Peak level 60.6 %
Track quality 100.0 %
Test CRC 8F8B5AD9
Copy CRC 8F8B5AD9
Track not present in AccurateRip database
Copy OK
Track 7
Filename C:\APE\Enigma\Album\2005 - The Dusted Variations (15 Years After - The Bonus CD)\07 - Sadeness Part 1 (Dusted Remix).wav
Peak level 74.7 %
Track quality 100.0 %
Test CRC 9E5AD4A5
Copy CRC 9E5AD4A5
Track not present in AccurateRip database
Copy OK
Track 8
Filename C:\APE\Enigma\Album\2005 - The Dusted Variations (15 Years After - The Bonus CD)\08 - Voyageur (Dusted Remix).wav
Peak level 58.4 %
Track quality 99.8 %
Test CRC 0F949979
Copy CRC 0F949979
Track not present in AccurateRip database
Copy OK
Track 9
Filename C:\APE\Enigma\Album\2005 - The Dusted Variations (15 Years After - The Bonus CD)\09 - Beyond The Invisible (Dusted Remix).wav
Peak level 58.5 %
Track quality 100.0 %
Test CRC 8352FC9F
Copy CRC 8352FC9F
Track not present in AccurateRip database
Copy OK
None of the tracks are present in the AccurateRip database
No errors occurred
End of status report
[Профиль]  [ЛС] 

DrStandBy

Lossless Group VIP

Стаж: 12 лет 1 месяц

Сообщений: 15173

DrStandBy · 21-Сен-08 17:21 (спустя 16 часов, ред. 27-Мар-11 23:04)

[Цитировать] 

В эту раздачу не вошли:
Синглы, которые давно выложены тут:
Enigma - Maxi Singles (16 CDs) 1990-2005, APE (image + .cue), lossless
Enigma - Mea Culpa Part II (Orthodox Mix) + Principles of Lust (The Omen Mix) - 1991, APE (tracks), lossless (rip без щелчка)
Enigma - T.N.T. for the Brain (Single) - 1997, APE (image + .cue)
Enigma - Seven Lives and La Puerta Del Cielo (single) - 2008, FLAC (tracks), lossless
А также бутлеги ("альбомы" те, что не относятся к официальной длискографии и являются творчеством пиратов):
Enigma IV - Metamorphosis - 1998 (Bootleg), APE (image + .cue)
Enigma V - 2000 - Dream On, FLAC (tracks + .cue)
Enigma & D-Emotion Project (Bootleg) [lossless] - 2000, FLAC (image + .cue)
Enigma feat. Andru Donalds - Music Box 2002 - 2002, APE (image+.cue)
Conjure One (fake Enigma) - Sleep. - 2003, APE (image + .cue)
Erotic Dreams - Temple of Love - 1998, APE (image + .cue)
[Профиль]  [ЛС] 

DrStandBy

Lossless Group VIP

Стаж: 12 лет 1 месяц

Сообщений: 15173

DrStandBy · 21-Сен-08 19:02 (спустя 1 час 40 мин., ред. 21-Сен-08 19:02)

[Цитировать] 

SiVlaOl
Это Proper рипы, то есть за оригинальность источника и точность снятия можно поручиться и сие не лицензии и уж тем боле не "горбушкины" пиратки
[Профиль]  [ЛС] 

viper_mw

Стаж: 11 лет 6 месяцев

Сообщений: 103


viper_mw · 22-Сен-08 09:16 (спустя 14 часов)

[Цитировать] 

Спасибо большое! Всё есть, даже на фирмовых дисочках кроме последнего, вот его и качну.
А за труды всё равно спасибо
[Профиль]  [ЛС] 

ANDiv

Стаж: 10 лет 11 месяцев

Сообщений: 285

ANDiv · 22-Сен-08 14:23 (спустя 5 часов)

[Цитировать] 

Спасибо! Хорошая раздача! Обязательно качаю новый альбом 2008 года!
[Профиль]  [ЛС] 

DrStandBy

Lossless Group VIP

Стаж: 12 лет 1 месяц

Сообщений: 15173

DrStandBy · 22-Сен-08 22:29 (спустя 8 часов)

[Цитировать] 

Еще одна дискографийная раздача-эксклюзив - (New Age, Ethereal, Ambient) Mythos - Антология творчества (6 альбомов) - (1996-2006), FLAC (tracks+.cue), lossless
[Профиль]  [ЛС] 

Grapapulas

Стаж: 11 лет 1 месяц

Сообщений: 18

Grapapulas · 22-Сен-08 23:14 (спустя 44 мин.)

[Цитировать] 

Раздача супер, громадное спасибо, завтра послушаю через колонки, а то щас поздновато !!! Хотелось бы послушать ещё на телефоне, а как переделать в mp3 незнаю, может кто подскажет какой прогой это сделать, пожалуйста!!!
[Профиль]  [ЛС] 

DrStandBy

Lossless Group VIP

Стаж: 12 лет 1 месяц

Сообщений: 15173

DrStandBy · 22-Сен-08 23:35 (спустя 21 мин., ред. 22-Сен-08 23:35)

[Цитировать] 

Grapapulas
А толку переделывать то? дискография есть и в MP3
[Профиль]  [ЛС] 

Grapapulas

Стаж: 11 лет 1 месяц

Сообщений: 18

Grapapulas · 22-Сен-08 23:52 (спустя 17 мин.)

[Цитировать] 

Спасибо, качаю!!! А что это за формат такой лосслесс (flac)- ЭТО как?
[Профиль]  [ЛС] 

Konstantin_slash

Top Seed 03* 160r

Стаж: 10 лет 4 месяца

Сообщений: 674

Konstantin_slash · 23-Сен-08 00:17 (спустя 24 мин.)

[Цитировать] 

Grapapulas писал(а):
Спасибо, качаю!!! А что это за формат такой лосслесс (flac)- ЭТО как?
Вот тут почитаейте http://rutracker.org/forum/viewtopic.php?t=48706
[Профиль]  [ЛС] 

Konstantin_slash

Top Seed 03* 160r

Стаж: 10 лет 4 месяца

Сообщений: 674

Konstantin_slash · 23-Сен-08 01:36 (спустя 1 час 19 мин.)

[Цитировать] 

Есть небольшая проблемка с рипом альбома Voyageur, на трех треках не совпадают CRC теста и копии, скорее всего это связано с тем, что диск с защитой (копиконтрол), а плекстор не очень жалует диски с защитой. В ближайшее время рип будет заменен на правильный. Спасибо за понимание.
С остальными рипами в этой дискографии - полный порядок :).
[Профиль]  [ЛС] 

DrStandBy

Lossless Group VIP

Стаж: 12 лет 1 месяц

Сообщений: 15173

DrStandBy · 23-Сен-08 05:44 (спустя 4 часа)

[Цитировать] 

Konstantin_slash
Буду ждать твой новый рип.
To all: Без паники эторабочая ситуация на качестве фонограммы не сказывающаяся
[Профиль]  [ЛС] 

kalexxx

Стаж: 10 лет 9 месяцев

Сообщений: 183


kalexxx · 23-Сен-08 13:51 (спустя 8 часов)

[Цитировать] 

если хотите могу свой рип подкинуть от Voyageur. Если что дайте знать..
[Профиль]  [ЛС] 

DrStandBy

Lossless Group VIP

Стаж: 12 лет 1 месяц

Сообщений: 15173

DrStandBy · 23-Сен-08 14:04 (спустя 13 мин., ред. 23-Сен-08 14:04)

[Цитировать] 

kalexxx
Да мы практически разобрались...если что стукну..пока можешь снять, и залить на ФТП, если что я добавлю. Услоия снятия рипа тебе известны
[Профиль]  [ЛС] 

DRaven

Стаж: 11 лет 5 месяцев

Сообщений: 31

DRaven · 24-Сен-08 19:58 (спустя 1 день 5 часов)

[Цитировать] 

Офигеть. Примите мою скромную словесную благодарность...
[Профиль]  [ЛС] 

DrStandBy

Lossless Group VIP

Стаж: 12 лет 1 месяц

Сообщений: 15173

DrStandBy · 24-Сен-08 20:31 (спустя 32 мин.)

[Цитировать] 

Торрент перезалит, заменен рип (2003) - Voyageur с контрольными суммами все теперь в порядке. Скачавшим старую версию торрент файла необходимо удалить содержимое папки (2003) - Voyageur и перехешировать. Всем приносим извинения за неудобства.
[Профиль]  [ЛС] 

kirill311x2

Стаж: 11 лет 8 месяцев

Сообщений: 833


kirill311x2 · 25-Сен-08 23:10 (спустя 1 день 2 часа, ред. 25-Сен-08 23:10)

[Цитировать] 

DrStandBy
спасибо за всю раздачу (хоть сам скачать собираюсь немного совсем) и отдельное - за делюксовый последний, его прослушать всё равно придётся...
[Профиль]  [ЛС] 

kTwJj5lnNxQn

Стаж: 10 лет 6 месяцев

Сообщений: 22

kTwJj5lnNxQn · 26-Сен-08 00:12 (спустя 1 час 2 мин., ред. 26-Сен-08 00:14)

[Цитировать] 

Смотрел кто-нибудь спектры нового альбома Seven Lives Many Faces (Limited Edition, 2CD) ? А то нет под рукой Soundbootha...
начал слушать новое творение Крету... первый трек неплохо так начинается... и в нем мотив из Le Roi est mort, vive le Roi! одноименного альбома...
[Профиль]  [ЛС] 

DrStandBy

Lossless Group VIP

Стаж: 12 лет 1 месяц

Сообщений: 15173

DrStandBy · 26-Сен-08 00:13 (спустя 1 мин.)

[Цитировать] 

kTwJj5lnNxQn
а чего в них смотреть если диск оригинальный или на слово мне не веришь?
[Профиль]  [ЛС] 

kTwJj5lnNxQn

Стаж: 10 лет 6 месяцев

Сообщений: 22

kTwJj5lnNxQn · 26-Сен-08 00:16 (спустя 3 мин., ред. 13-Окт-08 18:35)

[Цитировать] 

DrStandBy
oops, а я как то и не обратил внимание, кто автор раздачи...
а альбом уже чувствуется, что классный!!!
Спасибо!
[Профиль]  [ЛС] 

Sergen Z

Стаж: 12 лет 7 месяцев

Сообщений: 110

Sergen Z · 26-Сен-08 08:11 (спустя 7 часов, ред. 26-Сен-08 08:11)

[Цитировать] 

Маленькое дополнение к Seven Lives Many Faces
Трек Epilogue c японского издания:
mp3 - http:// СПАМ
wav - http:// СПАМ
Трек We Are We From из ITunes:
две версии(та что короче оригинал) http:// СПАМ
[Профиль]  [ЛС] 

kalexxx

Стаж: 10 лет 9 месяцев

Сообщений: 183


kalexxx · 26-Сен-08 10:01 (спустя 1 час 49 мин.)

[Цитировать] 

Sergen Z писал(а):
Маленькое дополнение к Seven Lives Many Faces
Трек Epilogue c японского издания:
mp3 - http:// СПАМ
wav - http:// СПАМ
Трек We Are We From из ITunes:
две версии(та что короче оригинал) http:// СПАМ
за эти трэки спасибо большое!!!
[Профиль]  [ЛС] 

strelez62

Стаж: 10 лет 5 месяцев

Сообщений: 5

strelez62 · 27-Сен-08 23:19 (спустя 1 день 13 часов, ред. 27-Сен-08 23:19)

[Цитировать] 

DrStandBy
Огромное спасибо за отличное качество, для себя открыл новый формат о котором даже и неподозревал. Действительно говорят:век живи-век учись.Ещё раз огромное спасибо!!!
[Профиль]  [ЛС] 

valdaj

Стаж: 13 лет 1 месяц

Сообщений: 62


valdaj · 28-Сен-08 00:05 (спустя 46 мин.)

[Цитировать] 

Автору спасибо ! Скачал тока новую заценить,послушал на компе а вот на диск нюра отказывается писать(нюра самопальная с трекера),облом подскажите пожалуиста кто разбирается .
[Профиль]  [ЛС] 

flame-i

Top User 06

Стаж: 10 лет 7 месяцев

Сообщений: 14

flame-i · 01-Окт-08 01:36 (спустя 3 дня)

[Цитировать] 

Спасибо! Заценю новый альбомчик.
[Профиль]  [ЛС] 

Bolshoy-OMSK-RUSSIAN

Стаж: 10 лет 7 месяцев

Сообщений: 7


Bolshoy-OMSK-RUSSIAN · 01-Окт-08 09:37 (спустя 8 часов)

[Цитировать] 

Первые четыре альбома без обложек. Может кто-нибудь выложит сканы с них где-нибудь на рапиде или депозите. Заранее благодарен.
[Профиль]  [ЛС] 

DrStandBy

Lossless Group VIP

Стаж: 12 лет 1 месяц

Сообщений: 15173

DrStandBy · 01-Окт-08 09:51 (спустя 14 мин., ред. 01-Окт-08 09:51)

[Цитировать] 

Обложек нет к 1, 3 и 4 альбомам....но в моем распоряжении их тоже нет...
Для первого альбома - http://cover-paradise.to/?Module=ViewEntry&ID=367502
Для второго (первого лимитированного) - http://cover-paradise.to/?Module=ViewEntry&ID=188938
Для третьей части есть тут - http://cover-paradise.to/?Module=ViewEntry&ID=324780
[Профиль]  [ЛС] 

arhad

Top Seed 02* 80r

Стаж: 11 лет 10 месяцев

Сообщений: 327

arhad · 01-Окт-08 18:49 (спустя 8 часов)

[Цитировать] 

Благодарю! Эта музыка останется в истории.
[Профиль]  [ЛС] 

benucci

Стаж: 10 лет 6 месяцев

Сообщений: 1202

benucci · 08-Окт-08 20:47 (спустя 7 дней)

[Цитировать] 

DrStandBy
Спасибо!Труд впечатляющ!Возьму свеженький.
[Профиль]  [ЛС] 
 
Ответить
Loading...
Error