Тупой и ещё тупее / Dumb and Dumber / Сезон: 1(1) / Серии: 1-13(13) (Байрон Вонс / Byron Vaughns) [1995, комедия, мультфильм, SATRip] Dub + Original (Eng)

Страницы:  1

Ответить
Автор
Сообщение

*Sergeant_am*

RG Мультфильмы

Стаж: 9 лет 11 месяцев

Сообщений: 2400

*Sergeant_am* · 16-Авг-12 19:38 (6 лет 1 месяц назад, ред. 12-Сен-16 20:24)

Тупой и ещё тупее / Dumb and Dumber
Страна: США
Жанр: комедия, мультфильм
Продолжительность: 21:20
Год выпуска: 1995
Перевод: Профессиональный (дублированный)
Оригинальная аудиодорожка: есть (Eng)
Русские субтитры: нет
Семпл: Скачать
Режиссёр: Байрон Вонс / Byron Vaughns
Роли озвучивали:у них: Мэтт Фревер, Билл Фейджербекк, Томас Кенни, Бронсон Пинчот, Кэт Соуси
у нас: Павел Сергеев, Валерий Антонов, Генадий Ромов, Валерий Кухорешин, Наталья Лейвер
Описание: Мультсериал повествует о приключениях двух друзей — Гарри и Ллойда, которые путешествуют по стране на своем догмобиле.
Благодарности:alexking, Kinaman, JonEA - за звук к сериям с 3-ей по 13-ую
21Sepsi - за звук к первым двум сериям
Sparkster - за ссылки на SATRip
Качество: SATRip
Формат: AVI
Видео: 640x480 (4:3), 25 fps, XviD MPEG-4 ~1122 kbps avg, 0.15 bit/pixel
Аудио 1: 48 kHz, AC3 Dolby Digital, 2/0 (L,R) ch, ~192.00 kbps avg (DUB)
Аудио 2: 48 kHz, AC3 Dolby Digital, 2/0 (L,R) ch, ~192.00 kbps avg (Eng)
Субтитры: отсутствуют
Список серий
01. "Лучший друг Отто (Otto’s Best Friend)"
02. "Дуракам везёт (Dumb Luck) + Счёт за тупость (Dumbbells)"
03. "На вершине тупости (Top Dumbs)"
04. "Южане верблюжане (Dixie Dolts) + Ни дождя, ни грязи, ни тупости (Neither Rain Nor Sleet Nor Dumbness)"
05. "Казус с лошадью (Horse Non-sense) + Неспящие в Сиэтле (Senseless in Seattle) + Никуда не годен (Mmm, Cheesy)"
06. "Наводчики и взломщики (Movers and Breakers) + Пчелам быть или не быть (To Bee Or Not To Bee)"
07. "Мечты и вопли (Dream a Little Scream) + Быстрый и еще быстрее (Speed and Speedier)"
08. "Санта дурачок (Santa Klutz) + Дырка в чем-то (Hole in Something)"
09. "Слишком умный для тупого (Brain, Brain, Go Away)"
10. "Домашние неурядицы (Home Cookin')"
11. "Новобранцы на марше (Bootcampers) + Заблудшие в раю (Overbite in Paradise)"
12. "Общипанный дурачок (Chipped Dip) + Безумная стирка (Laundryland Lunacy)"
13. "Канарейка Гарри (Harry Canary) + Похищенные инопланетянами (Alienated)"
Отчёт MediaInfo
Общее
Полное имя : E:\Тупой и ещё тупее\01.Лучший друг Отто.avi
Формат : AVI
Формат/Информация : Audio Video Interleave
Размер файла : 233 Мбайт
Продолжительность : 21 м.
Общий поток : 1522 Кбит/сек
Программа кодирования : VirtualDubModRus 1.5.10.2 (build 2542/release)
Библиотека кодирования : VirtualDubMod build 2542/release
Видео
Идентификатор : 0
Формат : MPEG-4 Visual
Профиль формата : Advanced [email protected]
Параметр BVOP формата : 2
Параметр QPel формата : Нет
Параметр GMC формата : Без точки перехода
Параметр матрицы формата : Default (H.263)
Режим смешивания : Сжатый битовый поток
Идентификатор кодека : XVID
Идентификатор кодека/Подсказка : XviD
Продолжительность : 21 м.
Битрейт : 1123 Кбит/сек
Ширина : 640 пикселей
Высота : 480 пикселей
Соотношение сторон : 4:3
Частота кадров : 25,000 кадров/сек
Цветовое пространство : YUV
Субдискретизация насыщенности : 4:2:0
Битовая глубина : 8 бит
Тип развёртки : Прогрессивная
Метод сжатия : С потерями
Бит/(Пиксели*Кадры) : 0.146
Размер потока : 172 Мбайт (74%)
Библиотека кодирования : XviD 1.2.0.dev47 (UTC 2006-11-01)
Аудио #1
Идентификатор : 1
Формат : AC-3
Формат/Информация : Audio Coding 3
Расширение режима : CM (complete main)
Параметр Endianness формата : Big
Идентификатор кодека : 2000
Продолжительность : 21 м.
Вид битрейта : Постоянный
Битрейт : 192 Кбит/сек
Каналы : 2 канала
Расположение каналов : Front: L R
Частота : 48,0 КГц
Битовая глубина : 16 бит
Метод сжатия : С потерями
Размер потока : 29,4 Мбайт (13%)
Выравнивание : Разделение по промежуткам
Продолжительность промежутка : 40 мс. (1,00 видеокадр)
Время предзагрузки промежутка : 500 мс.
Аудио #2
Идентификатор : 2
Формат : AC-3
Формат/Информация : Audio Coding 3
Расширение режима : CM (complete main)
Параметр Endianness формата : Big
Идентификатор кодека : 2000
Продолжительность : 21 м.
Вид битрейта : Постоянный
Битрейт : 192 Кбит/сек
Каналы : 2 канала
Расположение каналов : Front: L R
Частота : 48,0 КГц
Битовая глубина : 16 бит
Метод сжатия : С потерями
Размер потока : 29,4 Мбайт (13%)
Выравнивание : Разделение по промежуткам
Продолжительность промежутка : 40 мс. (1,00 видеокадр)
Время предзагрузки промежутка : 500 мс.
Скриншоты
Ссылка на предыдущие и альтернативные раздачи
Download
Для скачивания .torrent файлов необходима регистрация
Сайт не распространяет и не хранит электронные версии произведений, а лишь предоставляет доступ к создаваемому пользователями каталогу ссылок на торрент-файлы, которые содержат только списки хеш-сумм
[Профиль]  [ЛС] 

DimonNT

Top Seed 01* 40r

Стаж: 10 лет 1 месяц

Сообщений: 2194

DimonNT · 19-Авг-12 16:54 (спустя 2 дня 21 час)

[Цитировать] 

Спасибо за релиз! Качество очуменное, но вот логотайп смущает...))) ну будем дальше рыть искать.. может будет где-то без лого...
[Профиль]  [ЛС] 

Василий Задов

RG Мультфильмы

Стаж: 10 лет 10 месяцев

Сообщений: 3335

Василий Задов · 26-Авг-12 23:06 (спустя 7 дней, ред. 01-Авг-15 16:44)

[Цитировать] 

*Sergeant_am*, чей дубляж?
[Профиль]  [ЛС] 

Vrag

Стаж: 11 лет

Сообщений: 242


Vrag · 27-Авг-12 01:42 (спустя 2 часа 36 мин.)

[Цитировать] 

Василий Задов
Дубляж компании "EA".
[Профиль]  [ЛС] 

Василий Задов

RG Мультфильмы

Стаж: 10 лет 10 месяцев

Сообщений: 3335

Василий Задов · 02-Сен-12 14:32 (спустя 6 дней, ред. 01-Авг-15 16:44)

[Цитировать] 

Vrag, понятно, то есть студии «Невафильм» с VHS. Я читал, что есть ещё один дубляж - телеканала ТВЦ. Может, когда-нибудь будет повтор...
Но раздача, конечно, раритетная!
[Профиль]  [ЛС] 

Morpex-160

Стаж: 8 лет 6 месяцев

Сообщений: 1405

Morpex-160 · 10-Апр-13 01:26 (спустя 7 месяцев, ред. 19-Апр-13 21:58)

[Цитировать] 

Мульт ещё переводил тот который Байки из Склепа переводил, но у меня мульт был вместе с Эйсом Вентурой там был другой переводчик искал именно с тем который у меня был...
вспомнил переводил его
Антон Алексеев
[Профиль]  [ЛС] 

але80

Стаж: 8 лет

Сообщений: 3


але80 · 31-Май-13 11:35 (спустя 1 месяц 21 день)

[Цитировать] 

мужики встаньте на раздачу вобще не качается
[Профиль]  [ЛС] 

ttnrtuvnrutvr

Стаж: 4 года 5 месяцев

Сообщений: 1


ttnrtuvnrutvr · 23-Авг-14 18:01 (спустя 1 год 2 месяца)

[Цитировать] 

пожалуйста встанте кто нибудь на раздачу ни как скачать не могу
[Профиль]  [ЛС] 

MakDakerburg

Стаж: 8 лет 2 месяца

Сообщений: 27


MakDakerburg · 07-Дек-14 20:16 (спустя 3 месяца 15 дней)

[Цитировать] 

спасибо! еще эти мультфильмы переводил Санаев.
[Профиль]  [ЛС] 

lex2085

RG Мультфильмы

Стаж: 10 лет

Сообщений: 3409

lex2085 · 15-Янв-15 21:17 (спустя 1 месяц 8 дней)

[Цитировать] 

А мультсериал на днях издали на DVD в серии Warner Archive Collection.
[Профиль]  [ЛС] 

fed063

Стаж: 8 лет 7 месяцев

Сообщений: 2


fed063 · 04-Апр-16 13:39 (спустя 1 год 2 месяца)

[Цитировать] 

с Санаевым бы найти, ни у кого нет?
[Профиль]  [ЛС] 

лёха20141989

Стаж: 5 лет 4 месяца

Сообщений: 149


лёха20141989 · 24-Сен-18 18:48 (спустя 2 года 5 месяцев)

[Цитировать] 

lex2085 писал(а):
66541746А мультсериал на днях издали на DVD в серии Warner Archive Collection.
в век blu ray все ещё dvd делают.
пора им портал по подпискам продавать мульты кино и сериалы. а не на двд лить. где тираж мелкий.
[Профиль]  [ЛС] 
 
Ответить
Loading...
Error