Щенячий патруль / PAW Patrol / Сезон: 4 / Серии: 1-26 из 26 (Кейт Чепмэн / Keith Chapman) [2017-2018, детский, семейный, HDTV 1080i] Dub + Original

Страницы:  1

Ответить
Автор
Сообщение

xfiles

RG Мультфильмы

Стаж: 10 лет 11 месяцев

Сообщений: 42803

xfiles · 22-Сен-18 13:26 (23 дня назад, ред. 22-Сен-18 13:32)

Щенячий патруль / PAW Patrol
Сезон 1
Сезон 2
Сезон 3
Сезон 4

Страна: Канада, США
Жанр: мультсериал, детский, семейный
Продолжительность серии: 23 минуты
Год выпуска: 2015-2016
Перевод: Профессиональный (дублированный) SDI Media
Русские субтитры: нет
Режиссёр: Кейт Чепмэн / Keith Chapman
Роли озвучивали: Деван Коэн, Кристиан Дистефано, Каллан Холли, Alex Thorne, Гейдж Манро, Джули Лемье, Max Calinescu, Дрю Дэвис...
| Релиз:
Описание: Зик Райдер — озорной десятилетний мальчик, талантливый не по годам. Он отлично разбирается в электронике и технике и умело с ней обращается. Его жизнь насыщена и полна бесстрашных приключений. Вместе с шестью веселыми и храбрыми щенятами он создал отважную команду под названием «Щенячий патруль».
Сообща они выполняют спасательные миссии: с удовольствием помогают одинокому котенку, попавшему в беду, или освобождают состав поезда из-под оползня. Любое дело им по плечу. Каждый из щенков команды обладает особым характером и уникальными способностями. Зик и его четвероногие товарищи делают немало благих дел и являются по-настоящему смелыми спасателями.
Ссылка на предыдущие и альтернативные раздачи: http://rutracker.org/forum/tracker.php?nm=PAW%20Patrol
Семпл: PAW_sample.mkv
Качество: HDTV 1080i
Формат: MKV
Видео: 1920x1080 (16:9), 25.000 fps, AVC, ~4252 kbps
Аудио 1: Русский, 48.0 KHz, AC3, 2 ch, 192 kbps
Аудио 2: English, 48.0 KHz, AC3, 2 ch, 192 kbps
Субтитры: отсутствуют
Список серий:
s4e01. Pups Save a Blimp + Pups Save a Chili Cook-Off.rus.eng.mkv
s4e02. Pups Save a Teeny Penguin + Pups Save the Cat Show.rus.eng.mkv
s4e03. Pups Save a Playful Dragon + Pups Save the Critters.rus.eng.mkv
s4e04. Mission PAW - Quest for the Crown.rus.eng.mkv
s4e05. Pups Save a Sleepover + Pups Save the Carnival.rus.eng.mkv
s4e06. Pups Save Jake's Cake + Pups Save a Wild Ride.rus.eng.mkv
s4e07. Mission PAW - Royally Spooked! + Pups Save Monkey-Dinger.rus.eng.mkv
s4e08. Pups Save the Flying Food + Pups Save a Ferris Wheel.rus.eng.mkv
s4e09. Pups Save a Sleepwalking Bear + Pups Save Dude Ranch Danny.rus.eng.mkv
s4e10. Mission PAW - Pups Save the Royal Throne.rus.eng.mkv
s4e11. Pups Save Big Hairy + Pups Save a Flying Kitty.rus.eng.mkv
s4e12. Pups Party with Bats + Pups Save Sensei Yumi.rus.eng.mkv
s4e13. Sea Patrol - Pups Save a Baby Octopus.rus.eng.mkv
s4e14. Pups Save the Runaway Kitties + Pups Save Tiny Marshall.rus.eng.mkv
s4e15. Pups Chill Out + Pups Save Farmer Alex.rus.eng.mkv
s4e16. Sea Patrol. Pups Save a Shark + Sea Patrol. Pups Save the Pier.rus.eng.mkv
s4e17. Pups Save a Space Rock + Pups Save a Good Mayor.rus.eng.mkv
s4e18. Pups Save a City Kitty + Pups Save a Cloud Surfer.rus.eng.mkv
s4e19. Sea Patrol. Pirate Pups to the Rescue.rus.eng.mkv
s4e20. Pups Save the Mail + Pups Save a Frog Mayor.rus.eng.mkv
s4e21. Pups Save the Runaway Turtles + Pups Save the Shivering Sheep.rus.eng.mkv
s4e22. Sea Patrol. Pups Save a Frozen Flounder + Sea Patrol. Pups Save a Narwhal.rus.eng.mkv
s4e23. Pups Save Luke Stars + Pups Save Chicken Day.rus.eng.mkv
s4e24. Pups Save Francois the Penguin + Pups Save Daring Danny's Hippo.rus.eng.mkv
s4e25. Pups Save Baby Humdinger + Pups Save a Pinata.rus.eng.mkv
s4e26. Sea Patrol - Pups Save Puplantis.rus.eng.mkv
MediaInfo
General
Unique ID : 242873706758991833714342531676015387440 (0xB6B7C642B1474868EEF7DF208BBF6330)
Complete name : s4e15. Pups Chill Out + Pups Save Farmer Alex.rus.eng.mkv
Format : Matroska
Format version : Version 4
File size : 727 MiB
Duration : 21 min 54 s
Overall bit rate : 4 640 kb/s
Encoded date : UTC 2018-05-27 07:39:39
Writing application : mkvmerge v23.0.0 ('The Bride Said No') 64-bit
Writing library : libebml v1.3.6 + libmatroska v1.4.9
Video
ID : 1
Format : AVC
Format/Info : Advanced Video Codec
Format profile : [email protected]
Format settings : CABAC / 4 Ref Frames
Format settings, CABAC : Yes
Format settings, RefFrames : 4 frames
Codec ID : V_MPEG4/ISO/AVC
Duration : 21 min 54 s
Bit rate : 4 252 kb/s
Width : 1 920 pixels
Height : 1 080 pixels
Display aspect ratio : 16:9
Frame rate mode : Variable
Frame rate : 50.000 FPS
Original frame rate : 25.000 FPS
Standard : Component
Color space : YUV
Chroma subsampling : 4:2:0
Bit depth : 8 bits
Scan type : Interlaced
Scan type, store method : Separated fields
Scan order : Top Field First
Bits/(Pixel*Frame) : 0.041
Stream size : 666 MiB (92%)
Default : Yes
Forced : No
Color range : Limited
Color primaries : BT.709
Transfer characteristics : BT.709
Matrix coefficients : BT.709
Audio #1
ID : 2
Format : AC-3
Format/Info : Audio Coding 3
Commercial name : Dolby Digital
Codec ID : A_AC3
Duration : 21 min 53 s
Bit rate mode : Constant
Bit rate : 192 kb/s
Channel(s) : 2 channels
Channel layout : L R
Sampling rate : 48.0 kHz
Frame rate : 31.250 FPS (1536 SPF)
Bit depth : 16 bits
Compression mode : Lossy
Stream size : 30.1 MiB (4%)
Language : Russian
Service kind : Hearing Impaired
Default : Yes
Forced : No
Audio #2
ID : 3
Format : AC-3
Format/Info : Audio Coding 3
Commercial name : Dolby Digital
Codec ID : A_AC3
Duration : 21 min 53 s
Bit rate mode : Constant
Bit rate : 192 kb/s
Channel(s) : 2 channels
Channel layout : L R
Sampling rate : 48.0 kHz
Frame rate : 31.250 FPS (1536 SPF)
Bit depth : 16 bits
Compression mode : Lossy
Stream size : 30.1 MiB (4%)
Language : English
Service kind : Hearing Impaired
Default : No
Forced : No
Скриншоты
Download
Для скачивания .torrent файлов необходима регистрация
Сайт не распространяет и не хранит электронные версии произведений, а лишь предоставляет доступ к создаваемому пользователями каталогу ссылок на торрент-файлы, которые содержат только списки хеш-сумм
[Профиль]  [ЛС] 

bot · 22-Сен-18 13:32 (спустя 6 мин.)

Тема была перенесена из форума RG Мультфильмы (Оформление раздач) в форум Мультсериалы
xfiles
 

Net_Joker

Стаж: 10 лет 11 месяцев

Сообщений: 16

Net_Joker · 23-Сен-18 12:30 (спустя 23 часа)

[Цитировать] 

Спасибо! Дети будут рады!
[Профиль]  [ЛС] 

mazerus

Стаж: 12 лет

Сообщений: 2

mazerus · 24-Сен-18 09:53 (спустя 21 час)

[Цитировать] 

Огромное спасибо!
[Профиль]  [ЛС] 

art_n2o

Стаж: 8 лет 8 месяцев

Сообщений: 4

art_n2o · 25-Сен-18 19:08 (спустя 1 день 9 часов)

[Цитировать] 

Спасибо, мелкий будет пищать от радости
[Профиль]  [ЛС] 

ss00531

Стаж: 8 лет 5 месяцев

Сообщений: 160

ss00531 · 27-Сен-18 19:40 (спустя 2 дня)

[Цитировать] 

Спасибо.
[Профиль]  [ЛС] 

Gans115

Стаж: 11 лет 1 месяц

Сообщений: 11


Gans115 · 02-Окт-18 15:10 (спустя 4 дня)

[Цитировать] 

Ждём уже 5-й сезон
[Профиль]  [ЛС] 

dm-ron

Стаж: 10 лет 5 месяцев

Сообщений: 4


dm-ron · 09-Окт-18 08:25 (спустя 6 дней)

[Цитировать] 

огромное спасибо автору! а то первые три пересмотренны просто гигантское количество раз
[Профиль]  [ЛС] 

goldicarlyfan

Стаж: 6 лет 8 месяцев

Сообщений: 1009

goldicarlyfan · 12-Окт-18 14:31 (спустя 3 дня, ред. 12-Окт-18 14:31)

[Цитировать] 

Gans115 писал(а):
76060770Ждём уже 5-й сезон
от него боюсь долго ждать будете. первые 3 серии из 5 сезона в качестве от меня на другом трекере уже есть.
[Профиль]  [ЛС] 

vuglusker10

Стаж: 8 лет 11 месяцев

Сообщений: 65

vuglusker10 · 12-Окт-18 21:29 (спустя 6 часов)

[Цитировать] 

А пожмите, пожалуйста. Спасибо!
[Профиль]  [ЛС] 
 
Ответить
Loading...
Error