(Classical sacred) Gombert - Paradise Regained (Gombert 1) [Missa "Quam pulchra es" a 6; Motets] (Ulrike Hofbauer, The Sound and the Fury) - 2006, FLAC (image+.cue) lossless

Страницы:  1

Ответить
Автор
Сообщение

Caterina Sforza

Top Seed 06* 1280r

Стаж: 11 лет 5 месяцев

Сообщений: 3785

Caterina Sforza · 15-Фев-17 03:31 (1 год 7 месяцев назад, ред. 28-Июн-18 15:48)

Nicolas Gombert: Paradise Regained - Polyphonie der Renaissance (Gombert 1) – The Sound and the Fury
Жанр: Classical sacred
Страна-производитель диска: Made in Austria
Год издания диска: 2006
Издатель (лейбл): ORF ALTE MUSIC
Номер по каталогу: ORF CD 463
Дата записи: 2005
Аудиокодек: FLAC
Тип рипа: image+.cue
Битрейт аудио: lossless
Продолжительность: 72'30
Источник: релизер
сайт-источник/ник/другое: wdilbert
Наличие сканов в содержимом раздачи: да
Треклист:
Missa "Quam pulchra es" a 6
1. Kyrie
2. Gloria
3. Credo
4. Sanctus
5. Agnus Dei
Motets
6. "Ave Maria" a 5
7. "Salve Regina" a 4
8. "Sancta Maria" a 4
9. "Da pacem" a 5
10. "Inviolata" a 5
Исполнители
Nicolas Gombert
Paradise Regained - Polyphonie der Renaissance (Gombert 1)
The Sound and the Fury
Ulrike Hofbauer (soprano)
David Erler (alto)
John Potter (tenor)
Hubert Nettinger (tenor)
Jason Darnell (tenor)
Thomas E. Bauer (baritone)
Christof Hartkopf (baritone)
Richard Wistreich (bass)
Live Recording
Лог создания рипа
Exact Audio Copy V1.0 beta 1 from 15. November 2010
EAC extraction logfile from 15. March 2011, 17:46
The Sound and the Fury / Nicolas Gombert 1 - Paradise Regained
Used drive : LITE-ON DVDRW LH-20A1S Adapter: 3 ID: 0
Read mode : Secure
Utilize accurate stream : Yes
Defeat audio cache : Yes
Make use of C2 pointers : No
Read offset correction : 6
Overread into Lead-In and Lead-Out : No
Fill up missing offset samples with silence : Yes
Delete leading and trailing silent blocks : No
Null samples used in CRC calculations : Yes
Used interface : Native Win32 interface for Win NT & 2000
Used output format : User Defined Encoder
Selected bitrate : 768 kBit/s
Quality : High
Add ID3 tag : Yes
Command line compressor : C:\Program Files (x86)\Exact Audio Copy\FLAC\FLAC.EXE
Additional command line options : -8 -V -T "ARTIST=%a" -T "TITLE=%t" -T "ALBUM=%g" -T "DATE=%y" -T "TRACKNUMBER=%n" -T "GENRE=%m" -T "COMMENT=%e" %j–picture="%i"%j %s -o %d
TOC of the extracted CD
Track | Start | Length | Start sector | End sector
––––––––––––––––––––––––––––-
1 | 0:00.00 | 6:51.60 | 0 | 30884
2 | 6:51.60 | 10:16.03 | 30885 | 77087
3 | 17:07.63 | 13:01.41 | 77088 | 135703
4 | 30:09.29 | 10:20.36 | 135704 | 182239
5 | 40:29.65 | 5:45.70 | 182240 | 208184
6 | 46:15.60 | 4:19.41 | 208185 | 227650
7 | 50:35.26 | 5:19.01 | 227651 | 251576
8 | 55:54.27 | 2:54.04 | 251577 | 264630
9 | 58:48.31 | 6:59.34 | 264631 | 296089
10 | 65:47.65 | 7:00.15 | 296090 | 327604
Range status and errors
Selected range
Filename D:\EAC\The Sound and the Fury - Nicolas Gombert 1 - Paradise Regained.wav
Peak level 95.6 %
Extraction speed 0.3 X
Range quality 100.0 %
Copy CRC 67388E0F
Copy OK
No errors occurred
AccurateRip summary
Track 1 not present in database
Track 2 not present in database
Track 3 not present in database
Track 4 not present in database
Track 5 not present in database
Track 6 not present in database
Track 7 not present in database
Track 8 not present in database
Track 9 not present in database
Track 10 not present in database
None of the tracks are present in the AccurateRip database
End of status report
Содержание индексной карты (.CUE)
REM GENRE "Classical"
REM DATE 2006
REM DISCID 8411100A
REM COMMENT "ExactAudioCopy v1.0b1"
CATALOG 9004629313436
PERFORMER "The Sound and the Fury"
TITLE "Nicolas Gombert 1 - Paradise Regained"
FILE "GOMBERT_Paradise Regained_The Sound and the Fury.flac" WAVE
TRACK 01 AUDIO
TITLE "Missa 'Quam pulchra es' a 6 - Kyrie"
PERFORMER "The Sound and the Fury"
INDEX 01 00:00:00
TRACK 02 AUDIO
TITLE "Missa 'Quam pulchra es' a 6 - Gloria"
PERFORMER "The Sound and the Fury"
INDEX 01 06:51:60
TRACK 03 AUDIO
TITLE "Missa 'Quam pulchra es' a 6 - Credo"
PERFORMER "The Sound and the Fury"
INDEX 01 17:07:63
TRACK 04 AUDIO
TITLE "Missa 'Quam pulchra es' a 6 - Sanctus"
PERFORMER "The Sound and the Fury"
INDEX 01 30:09:29
TRACK 05 AUDIO
TITLE "Missa 'Quam pulchra es' a 6 - Agnus Dei"
PERFORMER "The Sound and the Fury"
INDEX 01 40:29:65
TRACK 06 AUDIO
TITLE "'Ave Maria' a 5"
PERFORMER "The Sound and the Fury"
INDEX 01 46:15:60
TRACK 07 AUDIO
TITLE "'Salve Regina' a 4"
PERFORMER "The Sound and the Fury"
INDEX 01 50:35:26
TRACK 08 AUDIO
TITLE "'Sancta Maria' a 4"
PERFORMER "The Sound and the Fury"
INDEX 01 55:54:27
TRACK 09 AUDIO
TITLE "'Da pacem' a 5"
PERFORMER "The Sound and the Fury"
INDEX 01 58:48:31
TRACK 10 AUDIO
TITLE "'Inviolata' a 5"
PERFORMER "The Sound and the Fury"
INDEX 01 65:47:65
Доп. информация
With "paradise regained” ORF Edition Ancient Music wants to revive renaissance polyphony. A few years ago "Ancient Music” meant music from the renaissance, today the definition has been broadened. Today "Ancient Music” is not defined through the repertoire, but through the interpretation. The focus lies on baroque music, the renaissance works – once "state of the art” – are rare in concert and CD’s – waiting to be rediscovered. This first CD’s benefit is, that most of the works have been recorded for the first time, which is interesting, because Missa „Quam pulchra es" with it’s six voices one of the monumental works of the renaissance is. The ensemble "The sound and the fury” was created by Thomas E. Bauer in 2000, have created a new sound concept the renaissance pieces.
Download
Для скачивания .torrent файлов необходима регистрация
Сайт не распространяет и не хранит электронные версии произведений, а лишь предоставляет доступ к создаваемому пользователями каталогу ссылок на торрент-файлы, которые содержат только списки хеш-сумм
[Профиль]  [ЛС] 

Elvenraad

Стаж: 8 лет 6 месяцев

Сообщений: 21


Elvenraad · 14-Июл-17 14:03 (спустя 4 месяца 27 дней)

[Цитировать] 

Please (re)seed this beautfiul album.
[Профиль]  [ЛС] 

masendr2

Стаж: 2 года 5 месяцев

Сообщений: 20


masendr2 · 25-Июн-18 15:51 (спустя 11 месяцев)

[Цитировать] 

Здравствуйте.Помогите до качать плз!Спасибо!
[Профиль]  [ЛС] 
 
Ответить
Loading...
Error