Красотки в бегах / Hot Pursuit (Энн Флетчер / Anne Fletcher) [2015, США, Боевик, комедия, криминал, DVD9] R5 Dub + Sub Rus + Original Eng

Страницы:  1

Ответить
Автор
Сообщение

J9-1000

Стаж: 5 лет 6 месяцев

Сообщений: 481

J9-1000 · 20-Июн-18 14:12 (29 дней назад)

Красотки в бегах / Hot Pursuit «Вооружены и типа опасны»
Страна: США
Студии: Warner Bros. Pictures, New Line Cinema, Metro-Goldwyn-Mayer (MGM), Pacific Standard
Жанр: Боевик, комедия, криминал
Год выпуска: 2015
Дата мировой премьеры: 7 мая 2015
Дата российской премьеры: 11 июня 2015, «Каро-Премьер»
Дата выхода DVD релиза: 17 сентября 2015, «CP Дистрибуция»
Продолжительность: 01:23:56
Перевод: Профессиональный (дублированный) [Лицензия]
Субтитры: Английские, болгарские, хорватские, эстонские, латышские, литовские, польские, русские, словенские, турецкие, украинские
Оригинальная аудиодорожка: английская
Режиссер: Энн Флетчер / Anne Fletcher
Продюсеры: Дэна Фокс, Бруна Папандреа, Sarah Swick
Актеры: Риз Уизерспун, София Вергара, Мэттью Дель Негро, Майкл Мосли, Роберт Казински, Ричард Т. Джонс, Бенни Нивз, Майкл Рэй Эскамиллья, Хоакин Косио, Джон Кэрролл Линч
Описание:
Сверхдобросовестный офицер полиции Купер гордится своим назначением на, казалось бы, простое задание — сопроводить жену мафиози Даниэллу через весь Техас в Даллас, где она и её муж должны дать показания против крупного наркобарона. Однако при встрече с порывистой миссис Рива — колумбийской красоткой с пышными формами, чье упрямство столь же выразительно, как и ее акцент — ей становится ясно, что поездка будет непростой.
И прежде чем они успевают договориться о том, сколько туфель на шпильках сможет взять с собой очаровашка Даниэлла, полицейские и мистер Рива попадают под обстрел, превращая жену последнего во вдову, а предполагаемую «легкую прогулку» из Сан-Антонио в Даллас — в прятки на выживание наперегонки с пулями!
Доп. материалы: Женская дружба

Качество: DVD9 R5
Формат: DVD-Video
Видео: MPEG-2, [email protected] (PAL 16:9), ~6200 Кбит/сек
Аудио 1: AC3 5.1, 384 Кбит/сек [Английский - оригинал]
Аудио 2: AC3 5.1, 384 Кбит/сек [Русский - дублированный]
Аудио 3: AC3 2.0, 192 Кбит/сек [Турецкий - дублированный]
Аудио 4: AC3 5.1, 384 Кбит/сек [Украинский - дублированный]
DVDInfo
Title: Hot Pursuit (2015) DVD9 R5
Size: 4.55 Gb ( 4 775 154,00 KBytes ) - DVD-9
Enabled regions: 1, 2, 3, 4, 5, 6, 7, 8
VTS_01 :
Play Length: 01:23:56+00:00:00+00:02:58
Video: PAL 16:9 (720x576) VBR, Auto Letterboxed
Audio:
English, AC3, 3/2 (L,C,R,SL,SR)+LFE ch, 384 kbps, Delay 0 mSec
Russian, AC3, 3/2 (L,C,R,SL,SR)+LFE ch, 384 kbps, Delay 0 mSec
Turkish, AC3, 2/0 (L,R) ch, 192 kbps, Delay 0 mSec
Ukrainian, AC3, 3/2 (L,C,R,SL,SR)+LFE ch, 384 kbps, Delay 0 mSec
English,
Subtitles:
English
Bulgarian
Hrvatski
Estonian
Latvian
Lithuanian
Polish
Russian
Slovenian
Turkish
Ukrainian
Russian
Turkish
VTS_02 :
Play Length: 00:00:10
Video: PAL 16:9 (720x576) VBR, Auto Letterboxed
Audio:
Not specified (Dolby AC3, 6 ch)
Subtitles:
Not specified
MediaInfo
Общее
Полное имя : G:\Torrents\Hot Pursuit (2015) DVD9 R5\VIDEO_TS\VTS_01_3.VOB
Формат : MPEG-PS
Размер файла : 1024 Мбайт
Продолжительность : 18 м. 34 с.
Режим общего битрейта : Переменный
Общий поток : 7705 Кбит/сек
Видео
Идентификатор : 224 (0xE0)
Формат : MPEG Video
Версия формата : Version 2
Профиль формата : [email protected]
Настройки формата : CustomMatrix / BVOP
Параметр BVOP формата : Да
Параметр матрицы формата : Выборочная
Параметр GOP формата : Variable
Структура изображения : Frame
Продолжительность : 18 м. 34 с.
Вид битрейта : Переменный
Битрейт : 6208 Кбит/сек
Максимальный битрейт : 7500 Кбит/сек
Ширина : 720 пикселей
Высота : 576 пикселей
Соотношение сторон : 16:9
Частота кадров : 25,000 кадров/сек
Стандарт вещания : PAL
Цветовое пространство : YUV
Субдискретизация насыщенности : 4:2:0
Битовая глубина : 8 бит
Тип развёртки : Чересстрочная
Порядок развёртки : Верхнее поле первое
Метод сжатия : С потерями
Бит/(Пиксели*Кадры) : 0.599
Временной код первого кадра : 01:38:04:24
Оригинал временного кода : Group of pictures header
GOP, открыто/закрыто : Закрыто
Размер потока : 825 Мбайт (81%)
Аудио #1
Идентификатор : 189 (0xBD)-128 (0x80)
Формат : AC-3
Формат/Информация : Audio Coding 3
Параметр Endianness формата : Big
Режим смешивания : DVD-Video
Продолжительность : 18 м. 34 с.
Вид битрейта : Постоянный
Битрейт : 384 Кбит/сек
Каналы : 6 каналов
Расположение каналов : Front: L C R, Side: L R, LFE
Частота : 48,0 КГц
Частота кадров : 31,250 кадров/сек (1536 SPF)
Битовая глубина : 16 бит
Метод сжатия : С потерями
Задержка видео : -240 мс.
Размер потока : 51,0 Мбайт (5%)
ServiceKind/String : Complete Main
Аудио #2
Идентификатор : 189 (0xBD)-129 (0x81)
Формат : AC-3
Формат/Информация : Audio Coding 3
Параметр Endianness формата : Big
Режим смешивания : DVD-Video
Продолжительность : 18 м. 34 с.
Вид битрейта : Постоянный
Битрейт : 384 Кбит/сек
Каналы : 6 каналов
Расположение каналов : Front: L C R, Side: L R, LFE
Частота : 48,0 КГц
Частота кадров : 31,250 кадров/сек (1536 SPF)
Битовая глубина : 16 бит
Метод сжатия : С потерями
Задержка видео : -240 мс.
Размер потока : 51,0 Мбайт (5%)
ServiceKind/String : Complete Main
Аудио #3
Идентификатор : 189 (0xBD)-130 (0x82)
Формат : AC-3
Формат/Информация : Audio Coding 3
Режим : Dolby Digital
Параметр Endianness формата : Big
Режим смешивания : DVD-Video
Продолжительность : 18 м. 34 с.
Вид битрейта : Постоянный
Битрейт : 192 Кбит/сек
Каналы : 2 канала
Расположение каналов : Front: L R
Частота : 48,0 КГц
Частота кадров : 31,250 кадров/сек (1536 SPF)
Битовая глубина : 16 бит
Метод сжатия : С потерями
Задержка видео : -208 мс.
Размер потока : 25,5 Мбайт (2%)
ServiceKind/String : Complete Main
Аудио #4
Идентификатор : 189 (0xBD)-131 (0x83)
Формат : AC-3
Формат/Информация : Audio Coding 3
Параметр Endianness формата : Big
Режим смешивания : DVD-Video
Продолжительность : 18 м. 34 с.
Вид битрейта : Постоянный
Битрейт : 384 Кбит/сек
Каналы : 6 каналов
Расположение каналов : Front: L C R, Side: L R, LFE
Частота : 48,0 КГц
Частота кадров : 31,250 кадров/сек (1536 SPF)
Битовая глубина : 16 бит
Метод сжатия : С потерями
Задержка видео : -240 мс.
Размер потока : 51,0 Мбайт (5%)
ServiceKind/String : Complete Main
Текст #1
Идентификатор : 189 (0xBD)-32 (0x20)
Формат : RLE
Формат/Информация : Run-length encoding
Режим смешивания : DVD-Video
Продолжительность : 18 м. 33 с.
Задержка видео : 360 мс.
Текст #2
Идентификатор : 189 (0xBD)-33 (0x21)
Формат : RLE
Формат/Информация : Run-length encoding
Режим смешивания : DVD-Video
Продолжительность : 18 м. 33 с.
Задержка видео : 240 мс.
Текст #3
Идентификатор : 189 (0xBD)-34 (0x22)
Формат : RLE
Формат/Информация : Run-length encoding
Режим смешивания : DVD-Video
Продолжительность : 18 м. 33 с.
Задержка видео : 240 мс.
Текст #4
Идентификатор : 189 (0xBD)-35 (0x23)
Формат : RLE
Формат/Информация : Run-length encoding
Режим смешивания : DVD-Video
Продолжительность : 18 м. 33 с.
Задержка видео : 240 мс.
Текст #5
Идентификатор : 189 (0xBD)-36 (0x24)
Формат : RLE
Формат/Информация : Run-length encoding
Режим смешивания : DVD-Video
Продолжительность : 18 м. 33 с.
Задержка видео : 240 мс.
Текст #6
Идентификатор : 189 (0xBD)-37 (0x25)
Формат : RLE
Формат/Информация : Run-length encoding
Режим смешивания : DVD-Video
Продолжительность : 18 м. 33 с.
Задержка видео : 240 мс.
Текст #7
Идентификатор : 189 (0xBD)-38 (0x26)
Формат : RLE
Формат/Информация : Run-length encoding
Режим смешивания : DVD-Video
Продолжительность : 18 м. 33 с.
Задержка видео : 360 мс.
Текст #8
Идентификатор : 189 (0xBD)-39 (0x27)
Формат : RLE
Формат/Информация : Run-length encoding
Режим смешивания : DVD-Video
Продолжительность : 18 м. 33 с.
Задержка видео : 360 мс.
Текст #9
Идентификатор : 189 (0xBD)-40 (0x28)
Формат : RLE
Формат/Информация : Run-length encoding
Режим смешивания : DVD-Video
Продолжительность : 18 м. 28 с.
Задержка видео : 3 с. 160 мс.
Текст #10
Идентификатор : 189 (0xBD)-41 (0x29)
Формат : RLE
Формат/Информация : Run-length encoding
Режим смешивания : DVD-Video
Продолжительность : 18 м. 33 с.
Задержка видео : 360 мс.
Текст #11
Идентификатор : 189 (0xBD)-42 (0x2A)
Формат : RLE
Формат/Информация : Run-length encoding
Режим смешивания : DVD-Video
Продолжительность : 18 м. 33 с.
Задержка видео : 360 мс.
Меню

Скриншоты меню
Скриншоты доп. материалов
Скриншоты фильма

За предоставленный DVD спасибо большое AKIM2B
Раздаю с 10:00 до 23:00 до 10 скачавших.
Download
Для скачивания .torrent файлов необходима регистрация
Сайт не распространяет и не хранит электронные версии произведений, а лишь предоставляет доступ к создаваемому пользователями каталогу ссылок на торрент-файлы, которые содержат только списки хеш-сумм
[Профиль]  [ЛС] 

bot · 20-Июн-18 16:40 (спустя 2 часа 27 мин.)

Тема была перенесена из форума DVD Video в форум Зарубежное кино (DVD Video)
perrelcin
 

limpboxter

Стаж: 6 лет 3 месяца

Сообщений: 215


limpboxter · 21-Июн-18 19:20 (спустя 1 день 5 часов)

[Цитировать] 

J9-1000_AKIM2B Большое Спасибо.
[Профиль]  [ЛС] 

cr24

Стаж: 8 лет 5 месяцев

Сообщений: 1335

cr24 · 06-Июл-18 15:42 (спустя 14 дней)

[Цитировать] 

J9-1000 и AKIM2B Спасибо за DVD9 R5 с доп.материалами )))
[Профиль]  [ЛС] 
 
Ответить
Loading...
Error