(Blues) [WEB] Steven Troch Band - Rhymes For Mellow Minds - 2018, FLAC (tracks), lossless

Страницы:  1

Ответить
Автор
Сообщение

DillFennel

Стаж: 1 год 2 месяца

Сообщений: 78

DillFennel · 08-Мар-18 21:50 (1 месяц 14 дней назад)

Steven Troch Band - Rhymes For Mellow Minds
Жанр: Blues
Год издания диска: 2018
Носитель: WEB
Издатель (лейбл): Sing My Title
Страна: Belgium
Аудиокодек: FLAC (*.flac)
Тип рипа: tracks
Битрейт аудио: lossless
Продолжительность: 00:44:06
Источник (релизер): 7digital.com
Наличие сканов в содержимом раздачи: нет
Sample from the upcoming album "Rhymes for Mellow Minds"
Треклист:
01. The Short End
02. Bad Taste
03. Going To Dagobah
04. Troubled One
05. Long Long Beard
06. White Line Express
07. Rabbit Foot Trail
08. 15 Minutes
09. Mister Jones
10. Vertigo
11. Bedroom Eyes
12. Rain Rain
13. Walk Away
Лог проверки качества
-----------------------
DON'T MODIFY THIS FILE
-----------------------
PERFORMER: auCDtect Task Manager, ver. 1.5.1RC4 build 1.5.1.5
Copyright (c) 2008-2010 y-soft. All rights reserved
http://y-soft.org
ANALYZER: auCDtect: CD records authenticity detector, version 0.8.2
Copyright (c) 2004 Oleg Berngardt. All rights reserved.
Copyright (c) 2004 Alexander Djourik. All rights reserved.
FILE: 13 - Walk Away.flac
Size: 35717753 Hash: 347EC050D8635B31AD0184F9394423EF Accuracy: -m0
Conclusion: CDDA 100%
Signature: C6C9EFD0DF031054A2590657D174D29672B7F537
FILE: 12 - Rain Rain.flac
Size: 21578481 Hash: 9D4BA5F9E05C11BEEF680C82858B7190 Accuracy: -m0
Conclusion: CDDA 100%
Signature: EFCBE8E16BE91FD2572F381F3E7444C0075666D6
FILE: 11 - Bedroom Eyes.flac
Size: 20327173 Hash: 6CAE6826DD1F644259FFC0C53C1EAC71 Accuracy: -m0
Conclusion: CDDA 100%
Signature: 81B511FEBF9273ADD51ECD30412DB242CCE0A3BB
FILE: 10 - Vertigo.flac
Size: 28456418 Hash: AE4DA2CD44A21A781EE0F5EA7AE502A1 Accuracy: -m0
Conclusion: CDDA 100%
Signature: CA731B7AD43FEC6A8ABBF6FE9C050B5B7539D2B8
FILE: 09 - Mister Jones.flac
Size: 18000811 Hash: FE2CC480DDD5118EB041CC09B004E34C Accuracy: -m0
Conclusion: CDDA 100%
Signature: EEBFE0001102C8F4562C2EF707C985405DAF9ACF
FILE: 08 - 15 Minutes.flac
Size: 15389196 Hash: C95B3AB5A9467BD9291E00013DD01EA2 Accuracy: -m0
Conclusion: CDDA 100%
Signature: B9F1F07AB8DC2A97F4663AD3A5E26802BA613C64
FILE: 07 - Rabbit Foot Trail.flac
Size: 14665615 Hash: 3BB38436028B32369BDF2F6407098C10 Accuracy: -m0
Conclusion: CDDA 100%
Signature: D86288209BB5598D425899E87EA38059098AC1E4
FILE: 06 - White Line Express.flac
Size: 20053179 Hash: 33DC5D79F46CF0560B2761AF83206E1B Accuracy: -m0
Conclusion: CDDA 100%
Signature: F6F5C78A5D94EAEAB6A557EE4FA47D1FAA468DB4
FILE: 05 - Long Long Beard.flac
Size: 18474425 Hash: 8F593F2F32219F55D0341E4F10E06BF3 Accuracy: -m0
Conclusion: CDDA 100%
Signature: F94BB862762C1452207BDC6279CC5AAD9199C1DE
FILE: 04 - Troubled One.flac
Size: 17793166 Hash: 906DF91AF54C23DB040809C8963E157A Accuracy: -m0
Conclusion: CDDA 100%
Signature: CA2C3665188B8D5F12B8C936C310FBAEA7FD9519
FILE: 03 - Going To Dagobah.flac
Size: 20256995 Hash: 630B75D1720DBE9271AF6CC1F8A48201 Accuracy: -m0
Conclusion: CDDA 100%
Signature: 85BE41F6FB8A28C5730F2C0D34A284DC31DF0C7D
FILE: 02 - Bad Taste.flac
Size: 21508703 Hash: 233DAF7FB1DD19D2D9FB90CFB52A8E7A Accuracy: -m0
Conclusion: CDDA 100%
Signature: 0205D0FB1875F48F3C10A45D32E868BFB667AB41
FILE: 01 - The Short End.flac
Size: 28341719 Hash: B6335C3F9EA343360ABE6171AA52438E Accuracy: -m0
Conclusion: CDDA 100%
Signature: 46C25912BEABE0BFF77FE83A2ACD35883809AE8C
Замер динамического диапазона
foobar2000 1.3.9 / Замер динамического диапазона (DR) 1.1.1
Дата отчёта: 2018-03-08 20:27:08
--------------------------------------------------------------------------------
Анализ: Steven Troch Band / Rhymes For Mellow Minds
--------------------------------------------------------------------------------
DR Пики RMS Продолжительность трека
--------------------------------------------------------------------------------
DR13 -0.29 дБ -15.44 дБ 4:07 1-The Short End
DR12 -1.05 дБ -15.29 дБ 3:21 2-Bad Taste
DR12 -0.45 дБ -14.67 дБ 3:04 3-Going To Dagobah
DR12 -0.81 дБ -16.00 дБ 3:10 4-Troubled One
DR11 -0.61 дБ -14.31 дБ 2:53 5-Long Long Beard
DR11 -1.02 дБ -14.37 дБ 2:58 6-White Line Express
DR12 -0.71 дБ -16.89 дБ 2:11 7-Rabbit Foot Trail
DR11 -1.28 дБ -15.18 дБ 2:42 8-15 Minutes
DR13 -0.21 дБ -14.61 дБ 2:46 9-Mister Jones
DR12 -0.28 дБ -14.14 дБ 4:27 10-Vertigo
DR11 -0.50 дБ -14.32 дБ 3:18 11-Bedroom Eyes
DR12 -0.47 дБ -14.62 дБ 3:07 12-Rain Rain
DR12 -0.34 дБ -15.05 дБ 6:02 13-Walk Away
--------------------------------------------------------------------------------
Количество треков: 13
Реальные значения DR: DR12
Частота: 44100 Гц
Каналов: 2
Разрядность: 16
Битрейт: 783 кбит/с
Кодек: FLAC
================================================================================
Доп. информация
Состав
Steven Troch - Vocals, Harmonica
Steven van der Nat - Guitar
Liesbeth Sprangers - Bass Guitar
Erik Heirman - Drums
Bruce James - Piano & Hammond on tracks "Going To Dagobah" & "Walk Away"
David Loos - Tenor Sax on tracks "Going To Dagobah" & "Walk Away"
Nicolas Talbot - Baritone sax on tracks "Going To Dagobah" & "Walk Away"
JB Biesmans - Baritone & Tenor Sax on track "Vertigo"
Bird Stevens - Handclaps & Chants on track "Rabbit Foot Trail"
Об исполнителе
Frontman Steven Troch got “contaminated” by the blues in his late teens and has since then played in different known and unknown bands. Over the years he has turned into a very fine harmonica player with an extra dose of originality, an accomplished vocalist and clever songwriter. In 2016 Steven surrounded himself with a very talented & experienced bunch of musicians and the Steven Troch Band was born. "Little Steve" Van Der Nat is a killer guitarplayer who always nails it, Miss Liesbeth Sprangers keeps a steady pace on her powerhouse bass and nononsense drummer King Berik beats his jungle boilers. They serve you a fine mixture of meaty BLUES and spicy ROOTS. In their music you will hear the mean menace of modern day life, the sweaty rhythms of the city, the blue notes of days gone by and lyrics that will paint a smile on your face. They are always walking a tightrope between HighOctane Swing, mellow Afterhours Blues and vintage feel-good R&B.
https://www.7digital.com/artist/steven-troch/release/rhymes-for-mellow-minds-7463...C16%2C17%2C9%2C2
http://www.steventroch.com/
http://www.steventrochband.com/
Download
Для скачивания .torrent файлов необходима регистрация
Сайт не распространяет и не хранит электронные версии произведений, а лишь предоставляет доступ к создаваемому пользователями каталогу ссылок на торрент-файлы, которые содержат только списки хеш-сумм
[Профиль]  [ЛС] 

ichbinich

Победители конкурсов

Стаж: 6 лет 8 месяцев

Сообщений: 2017

ichbinich · 10-Мар-18 22:17 (спустя 2 дня)

[Цитировать] 

Неплохой блюз.
[Профиль]  [ЛС] 

musmania

Стаж: 8 лет 5 месяцев

Сообщений: 1735

musmania · 22-Мар-18 17:41 (спустя 11 дней)

[Цитировать] 

Спасибо!
[Профиль]  [ЛС] 
 
Ответить
Loading...
Error