(Chicago Blues) Big Mojo Elem - Mojo Boogie - 1977 (1997), FLAC (tracks+.cue), lossless

Страницы:  1

Ответить
Автор
Сообщение

Nikolera

Стаж: 8 лет 8 месяцев

Сообщений: 10398


Nikolera · 23-Дек-12 14:42 (5 лет 6 месяцев назад)

Big Mojo Elem - Mojo Boogie



Жанр: Chicago Blues
Страна-производитель диска: Denmark
Год издания: 1977 (1997)
Издатель (лейбл): Storyville
Номер по каталогу: STCD 8041
Страна: USA
Аудиокодек: FLAC (*.flac)
Тип рипа: tracks+.cue
Битрейт аудио: lossless
Продолжительность: 00:55:53
Источник (релизер): internet
Наличие сканов в содержимом раздачи: да

01. Drawing On Dry Land [00:05:18]
02. Every Night And Every Day [00:03:39]
03. Black Nights [00:04:50]
04. Hush [00:05:23]
05. Red Light [00:05:08]
06. Talk To Your Daughter [00:02:55]
07. Mojo Boogie [00:02:47]
08. Living In Paradise [00:02:37]
09. Hide Away [00:04:54]
10. Every Night And Every Day 2 [00:03:37]
11. Long Meter Stomp [00:12:08]
12. Be My Little Girl [00:02:33]


Лог создания рипа
Exact Audio Copy V0.99 prebeta 3 from 28. July 2007
EAC extraction logfile from 4. April 2009, 11:13
Big Mojo Elem / Mojo Boogie
Used drive : BPN-KM52X16 Adapter: 2 ID: 0
Read mode : Burst
Read offset correction : 6
Overread into Lead-In and Lead-Out : No
Fill up missing offset samples with silence : Yes
Delete leading and trailing silent blocks : No
Null samples used in CRC calculations : No
Used interface : Native Win32 interface for Win NT & 2000
Gap handling : Appended to previous track
Used output format : User Defined Encoder
Selected bitrate : 96 kBit/s
Quality : High
Add ID3 tag : No
Command line compressor : F:\Program Files\Exact Audio Copy\Flac\flac.exe
Additional command line options : -6 -V -T "artist=%a" -T "title=%t" -T "album=%g" -T "date=%y" -T "tracknumber=%n" -T "genre=%m" -T comment="%e" -T "comment=EAC (T&C In Burst Mode)" %s
TOC of the extracted CD
Track | Start | Length | Start sector | End sector
---------------------------------------------------------
1 | 0:00.00 | 5:18.30 | 0 | 23879
2 | 5:18.30 | 3:39.05 | 23880 | 40309
3 | 8:57.35 | 4:50.10 | 40310 | 62069
4 | 13:47.45 | 5:23.30 | 62070 | 86324
5 | 19:11.00 | 5:08.58 | 86325 | 109482
6 | 24:19.58 | 2:55.17 | 109483 | 122624
7 | 27:15.00 | 2:47.50 | 122625 | 135199
8 | 30:02.50 | 2:37.40 | 135200 | 147014
9 | 32:40.15 | 4:54.05 | 147015 | 169069
10 | 37:34.20 | 3:37.65 | 169070 | 185409
11 | 41:12.10 | 12:08.25 | 185410 | 240034
12 | 53:20.35 | 2:33.40 | 240035 | 251549
Track 1
Filename J:\Rips\Big Mojo Elem - Mojo Boogie\01 - Drawing On Dry Land.wav
Pre-gap length 0:00:02.00
Peak level 100.0 %
Test CRC D021D253
Copy CRC D021D253
Track not present in AccurateRip database
Copy OK
Track 2
Filename J:\Rips\Big Mojo Elem - Mojo Boogie\02 - Every Night And Every Day.wav
Peak level 100.0 %
Test CRC 3C5EA6FC
Copy CRC 3C5EA6FC
Track not present in AccurateRip database
Copy OK
Track 3
Filename J:\Rips\Big Mojo Elem - Mojo Boogie\03 - Black Nights.wav
Peak level 100.0 %
Test CRC 068EF0D2
Copy CRC 068EF0D2
Track not present in AccurateRip database
Copy OK
Track 4
Filename J:\Rips\Big Mojo Elem - Mojo Boogie\04 - Hush.wav
Peak level 100.0 %
Test CRC 743838F9
Copy CRC 743838F9
Track not present in AccurateRip database
Copy OK
Track 5
Filename J:\Rips\Big Mojo Elem - Mojo Boogie\05 - Red Light.wav
Peak level 100.0 %
Test CRC AB93BF08
Copy CRC AB93BF08
Track not present in AccurateRip database
Copy OK
Track 6
Filename J:\Rips\Big Mojo Elem - Mojo Boogie\06 - Talk To Your Daughter.wav
Peak level 100.0 %
Test CRC F8424C94
Copy CRC F8424C94
Track not present in AccurateRip database
Copy OK
Track 7
Filename J:\Rips\Big Mojo Elem - Mojo Boogie\07 - Mojo Boogie.wav
Peak level 100.0 %
Test CRC F81A8DC5
Copy CRC F81A8DC5
Track not present in AccurateRip database
Copy OK
Track 8
Filename J:\Rips\Big Mojo Elem - Mojo Boogie\08 - Living In Paradise.wav
Peak level 100.0 %
Test CRC 9D34118A
Copy CRC 9D34118A
Track not present in AccurateRip database
Copy OK
Track 9
Filename J:\Rips\Big Mojo Elem - Mojo Boogie\09 - Hide Away.wav
Peak level 100.0 %
Test CRC EABB8A27
Copy CRC EABB8A27
Track not present in AccurateRip database
Copy OK
Track 10
Filename J:\Rips\Big Mojo Elem - Mojo Boogie\10 - Every Night And Every Day 2.wav
Peak level 100.0 %
Test CRC B3E72283
Copy CRC B3E72283
Track not present in AccurateRip database
Copy OK
Track 11
Filename J:\Rips\Big Mojo Elem - Mojo Boogie\11 - Long Meter Stomp.wav
Peak level 100.0 %
Test CRC C045FBD4
Copy CRC C045FBD4
Track not present in AccurateRip database
Copy OK
Track 12
Filename J:\Rips\Big Mojo Elem - Mojo Boogie\12 - Be My Little Girl.wav
Peak level 100.0 %
Test CRC 096E9D67
Copy CRC 096E9D67
Track not present in AccurateRip database
Copy OK
None of the tracks are present in the AccurateRip database
No errors occurred
End of status report
Содержание индексной карты (.CUE)
REM GENRE Blues
REM DATE 1997
REM DISCID 980D1A0C
REM COMMENT "ExactAudioCopy v0.99pb3"
PERFORMER "Big Mojo Elem"
TITLE "Mojo Boogie"
FILE "Big Mojo Elem - Mojo Boogie\01 - Drawing On Dry Land.wav" WAVE
TRACK 01 AUDIO
TITLE "Drawing On Dry Land"
PERFORMER "Big Mojo Elem"
FLAGS DCP
INDEX 01 00:00:00
FILE "Big Mojo Elem - Mojo Boogie\02 - Every Night And Every Day.wav" WAVE
TRACK 02 AUDIO
TITLE "Every Night And Every Day"
PERFORMER "Big Mojo Elem"
FLAGS DCP
INDEX 01 00:00:00
FILE "Big Mojo Elem - Mojo Boogie\03 - Black Nights.wav" WAVE
TRACK 03 AUDIO
TITLE "Black Nights"
PERFORMER "Big Mojo Elem"
FLAGS DCP
INDEX 01 00:00:00
FILE "Big Mojo Elem - Mojo Boogie\04 - Hush.wav" WAVE
TRACK 04 AUDIO
TITLE "Hush"
PERFORMER "Big Mojo Elem"
FLAGS DCP
INDEX 01 00:00:00
FILE "Big Mojo Elem - Mojo Boogie\05 - Red Light.wav" WAVE
TRACK 05 AUDIO
TITLE "Red Light"
PERFORMER "Big Mojo Elem"
FLAGS DCP
INDEX 01 00:00:00
FILE "Big Mojo Elem - Mojo Boogie\06 - Talk To Your Daughter.wav" WAVE
TRACK 06 AUDIO
TITLE "Talk To Your Daughter"
PERFORMER "Big Mojo Elem"
FLAGS DCP
INDEX 01 00:00:00
FILE "Big Mojo Elem - Mojo Boogie\07 - Mojo Boogie.wav" WAVE
TRACK 07 AUDIO
TITLE "Mojo Boogie"
PERFORMER "Big Mojo Elem"
FLAGS DCP
INDEX 01 00:00:00
FILE "Big Mojo Elem - Mojo Boogie\08 - Living In Paradise.wav" WAVE
TRACK 08 AUDIO
TITLE "Living In Paradise"
PERFORMER "Big Mojo Elem"
FLAGS DCP
INDEX 01 00:00:00
FILE "Big Mojo Elem - Mojo Boogie\09 - Hide Away.wav" WAVE
TRACK 09 AUDIO
TITLE "Hide Away"
PERFORMER "Big Mojo Elem"
FLAGS DCP
INDEX 01 00:00:00
FILE "Big Mojo Elem - Mojo Boogie\10 - Every Night And Every Day 2.wav" WAVE
TRACK 10 AUDIO
TITLE "Every Night And Every Day 2"
PERFORMER "Big Mojo Elem"
FLAGS DCP
INDEX 01 00:00:00
FILE "Big Mojo Elem - Mojo Boogie\11 - Long Meter Stomp.wav" WAVE
TRACK 11 AUDIO
TITLE "Long Meter Stomp"
PERFORMER "Big Mojo Elem"
FLAGS DCP
INDEX 01 00:00:00
FILE "Big Mojo Elem - Mojo Boogie\12 - Be My Little Girl.wav" WAVE
TRACK 12 AUDIO
TITLE "Be My Little Girl"
PERFORMER "Big Mojo Elem"
FLAGS DCP
INDEX 01 00:00:00
Лог проверки качества
AUDIOCHECKER v2.0 beta (build 457) - by Dester - [email protected]
~~~~~~~~~~~~~~~~~~~~~~~~~~~~~~~~~~
-=== DO NOT EDIT THIS FILE! ===-
Path: ...\Big Mojo Elem - Mojo Boogie (1977)1997
001 -=- 01 - Drawing On Dry Land.flac -=- CDDA (100%)
002 -=- 02 - Every Night And Every Day.flac -=- CDDA (100%)
003 -=- 03 - Black Nights.flac -=- CDDA (100%)
004 -=- 04 - Hush.flac -=- CDDA (99%)
005 -=- 05 - Red Light.flac -=- CDDA (99%)
006 -=- 06 - Talk To Your Daughter.flac -=- CDDA (100%)
007 -=- 07 - Mojo Boogie.flac -=- CDDA (99%)
008 -=- 08 - Living In Paradise.flac -=- CDDA (99%)
009 -=- 09 - Hide Away.flac -=- CDDA (100%)
010 -=- 10 - Every Night And Every Day 2.flac -=- CDDA (100%)
011 -=- 11 - Long Meter Stomp.flac -=- CDDA (100%)
012 -=- 12 - Be My Little Girl.flac -=- CDDA (100%)
Summary 99,67% CDDA
21437844
Скриншот спектра частот
Об исполнителе
When talking about deep bluesmen who are also great entertainers, the conversation will eventually get around to the coolest bassman/singer/showman the Windy City has in its blues arsenal, Big Mojo Elem. As a singer, he possesses a relatively high-pitched voice that alternately drips with honey and malice. As a bassist, his unique approach to the instrument makes him virtually one of a kind. Unlike most bass players, Elem seldom plays standard walking bass patterns, instead using a single-note groove that lends to any band he's a part of a decidedly juke-joint groove. And as a showman, he possesses an energy that makes other performers half his age look like they're sitting down. Born in Itta Bena, Mississippi, Elem grew up in fertile blues territory. Originally a guitarist, he soaked up licks and ideas by observing masters like Robert Nighthawk and a young Ike Turner first-hand. By his 20th birthday, he had arrived in Chicago and was almost immediately pressed into professional service playing rhythm guitar behind Arthur "Big Boy" Spires and harmonica man Lester Davenport. By 1956, Elem had switched over to the newly arrived (in Chicago) electric bass, simply to stand out from the pack of guitar players searching the clubs looking for work. He formed a band with harp player Earl Payton and signed on a young Freddie King as their lead guitarist, playing on King's very first single for the El-Bee label in late 1956. After Freddie's success made him the bandleader, Big Mojo stayed with King off and on for the next eight years. The '50s and '60s also found him doing club work -- mostly on the West side -- with Magic Sam, Junior Wells, Shakey Jake Harris, Jimmy Dawkins, and Luther Allison, with a short stint in Otis Rush's band as well. Aside from a stray anthology cut and a now out of print album for a tiny European label, Elem's career has not been documented in much depth, but he remains one of the liveliest players on the scene.
Об альбоме
Blessed with a sweet growl of a voice and grinding out a single-note groove heavier than any ZZ Top record you've got, this thing romps like nobody's business, and is the perfect showcase for Elem's hard driving, bare-bones honest singing and bass-pumping talents. Studebaker John Grimaldi plays some nice lead and even nicer slide, and blows some fine amplified harp when needed, while Twist Turner's no-frills drumming slots in nice with Mojo's bass hunch. A nice balance between old favorites and original material, most of it co-written with producer George Paulus.
Download
Для скачивания .torrent файлов необходима регистрация
Сайт не распространяет и не хранит электронные версии произведений, а лишь предоставляет доступ к создаваемому пользователями каталогу ссылок на торрент-файлы, которые содержат только списки хеш-сумм
[Профиль]  [ЛС] 

simbolPS

Top Seed 04* 320r

Стаж: 9 лет

Сообщений: 1459

simbolPS · 23-Дек-12 15:06 (спустя 24 мин., ред. 23-Дек-12 15:09)

[Цитировать] 

Спасибо.
Цитата:
Источник (релизер): internet
Herbicidal Maniac
...неплохо бы корректный .cue в раздачу
[Профиль]  [ЛС] 

wpsusa

Стаж: 7 лет 7 месяцев

Сообщений: 173

wpsusa · 22-Мар-18 10:07 (спустя 5 лет 2 месяца, ред. 22-Мар-18 10:07)

[Цитировать] 

Скачать помогите пожалуйста Big Mojo Elem - Mojo Boogie С уважением
[Профиль]  [ЛС] 

рмх222

VIP (Заслуженный)

Стаж: 11 лет 5 месяцев

Сообщений: 9341

рмх222 · 22-Мар-18 10:55 (спустя 47 мин.)

[Цитировать] 

wpsusa
Меня всегда интересовало вот это....
wpsusa писал(а):
75032336Скачать помогите пожалуйста Big Mojo Elem - Mojo Boogie
Зачем это писать если Вы находитесь в этой теме? Или если не написать , то народ даст Вам Шуберта скачать?
[Профиль]  [ЛС] 
 
Ответить
Loading...
Error