(Modern Electric Blues) Jim Mesi Band - Blues, Cars, and Electric Guitars - 2000, FLAC (tracks+.cue), lossless

Страницы:  1

Ответить
Автор
Сообщение

Wtorm58

Top Seed 04* 320r

Стаж: 10 лет 2 месяца

Сообщений: 527

Wtorm58 · 30-Окт-11 20:39 (6 лет 5 месяцев назад, ред. 31-Окт-11 07:24)

Jim Mesi Band - Blues, Cars, and Electric Guitars
Жанр: Modern Electric Blues
Год издания диска: 2000
Издатель (лейбл): Just Ducky Records
Страна: usa
Аудиокодек: FLAC (*.flac)
Тип рипа: tracks+.cue
Битрейт аудио: lossless
Продолжительность: 01:03:23
Источник (релизер): Mysterbin
Наличие сканов в содержимом раздачи: да
Треклист:
Pontiac Blues
Dangerous Mood
Goin’ Back Home
C’mon if You’re Comin’
Blue Light Boogie
Rampage in C Major
Too Much Stuff
Body & Fender Man
Apache
My Babe
Misirlou
Who’s Foolin’ Who
Me & Mr Blue
Surfing on the Autobahn
Norwegian Wood
Лог создания рипа
Exact Audio Copy V0.99 prebeta 5 from 4. May 2009
EAC extraction logfile from 8. August 2011, 5:52
Jim Mesi Band / Blues, Cars, and Electric Guitars
Used drive : LITE-ON DVD SOHD-16P9S Adapter: 0 ID: 1
Read mode : Burst
Read offset correction : 0
Overread into Lead-In and Lead-Out : No
Fill up missing offset samples with silence : Yes
Delete leading and trailing silent blocks : No
Null samples used in CRC calculations : No
Used interface : Installed external ASPI interface
Gap handling : Appended to previous track
Used output format : Internal WAV Routines
Sample format : 44.100 Hz; 16 Bit; Stereo
TOC of the extracted CD
Track | Start | Length | Start sector | End sector
---------------------------------------------------------
1 | 0:00.00 | 3:34.69 | 0 | 16118
2 | 3:34.69 | 7:15.28 | 16119 | 48771
3 | 10:50.22 | 5:11.11 | 48772 | 72107
4 | 16:01.33 | 4:53.39 | 72108 | 94121
5 | 20:54.72 | 9:52.49 | 94122 | 138570
6 | 30:47.46 | 2:17.26 | 138571 | 148871
7 | 33:04.72 | 4:13.67 | 148872 | 167913
8 | 37:18.64 | 7:02.48 | 167914 | 199611
9 | 44:21.37 | 4:06.49 | 199612 | 218110
10 | 48:28.11 | 5:59.08 | 218111 | 245043
11 | 54:27.19 | 3:48.51 | 245044 | 262194
12 | 58:15.70 | 4:31.48 | 262195 | 282567
13 | 62:47.43 | 5:26.38 | 282568 | 307055
14 | 68:14.06 | 2:36.19 | 307056 | 318774
15 | 70:50.25 | 2:54.39 | 318775 | 331863
Track 1
Filename E:\2 - New Rip's\Jim Mesi Band - Blues, Cars, & Electric Guitars\01 - Pontiac Blues.wav
Pre-gap length 0:00:02.00
Peak level 95.6 %
Test CRC CE39D008
Copy CRC CE39D008
Copy OK
Track 2
Filename E:\2 - New Rip's\Jim Mesi Band - Blues, Cars, & Electric Guitars\02 - Dangerous Mood.wav
Pre-gap length 0:00:01.00
Peak level 95.9 %
Test CRC B8E9B66C
Copy CRC B8E9B66C
Copy OK
Track 3
Filename E:\2 - New Rip's\Jim Mesi Band - Blues, Cars, & Electric Guitars\03 - Goin' Back Home.wav
Pre-gap length 0:00:01.00
Peak level 95.6 %
Test CRC C2F12373
Copy CRC C2F12373
Copy OK
Track 4
Filename E:\2 - New Rip's\Jim Mesi Band - Blues, Cars, & Electric Guitars\04 - Come On If You're Comin'.wav
Pre-gap length 0:00:01.00
Peak level 94.2 %
Test CRC BF07B8DB
Copy CRC BF07B8DB
Copy OK
Track 5
Filename E:\2 - New Rip's\Jim Mesi Band - Blues, Cars, & Electric Guitars\05 - Blue Light Boogie.wav
Pre-gap length 0:00:01.00
Peak level 96.2 %
Test CRC 459866D8
Copy CRC 459866D8
Copy OK
Track 6
Filename E:\2 - New Rip's\Jim Mesi Band - Blues, Cars, & Electric Guitars\06 - Rampage In C.wav
Pre-gap length 0:00:02.38
Peak level 96.0 %
Test CRC D3408947
Copy CRC D3408947
Copy OK
Track 7
Filename E:\2 - New Rip's\Jim Mesi Band - Blues, Cars, & Electric Guitars\07 - Too Much Stuff.wav
Pre-gap length 0:00:01.00
Peak level 97.0 %
Test CRC 6D2D8A56
Copy CRC 6D2D8A56
Copy OK
Track 8
Filename E:\2 - New Rip's\Jim Mesi Band - Blues, Cars, & Electric Guitars\08 - Body And Fender Man.wav
Pre-gap length 0:00:01.00
Peak level 95.8 %
Test CRC 1088B379
Copy CRC 1088B379
Copy OK
Track 9
Filename E:\2 - New Rip's\Jim Mesi Band - Blues, Cars, & Electric Guitars\09 - Apache.wav
Pre-gap length 0:00:01.00
Peak level 95.8 %
Test CRC 006BA077
Copy CRC 006BA077
Copy OK
Track 10
Filename E:\2 - New Rip's\Jim Mesi Band - Blues, Cars, & Electric Guitars\10 - My Baby.wav
Pre-gap length 0:00:01.00
Peak level 95.6 %
Test CRC 98199414
Copy CRC 98199414
Copy OK
Track 11
Filename E:\2 - New Rip's\Jim Mesi Band - Blues, Cars, & Electric Guitars\11 - Misirlou (2001 Bridge Mix).wav
Pre-gap length 0:00:01.00
Peak level 94.0 %
Test CRC 5329E425
Copy CRC 5329E425
Copy OK
Track 12
Filename E:\2 - New Rip's\Jim Mesi Band - Blues, Cars, & Electric Guitars\12 - Who's Foolin' Who .wav
Pre-gap length 0:00:01.00
Peak level 79.0 %
Test CRC 3D0A95E9
Copy CRC 3D0A95E9
Copy OK
Track 13
Filename E:\2 - New Rip's\Jim Mesi Band - Blues, Cars, & Electric Guitars\13 - Me And Mr. Blue.wav
Pre-gap length 0:00:01.00
Peak level 96.5 %
Test CRC BADD740D
Copy CRC BADD740D
Copy OK
Track 14
Filename E:\2 - New Rip's\Jim Mesi Band - Blues, Cars, & Electric Guitars\14 - Surfin' On The Autobahn.wav
Pre-gap length 0:00:01.00
Peak level 95.1 %
Test CRC 6641D8DC
Copy CRC 6641D8DC
Copy OK
Track 15
Filename E:\2 - New Rip's\Jim Mesi Band - Blues, Cars, & Electric Guitars\15 - Norwegian Wood.wav
Pre-gap length 0:00:01.00
Peak level 79.4 %
Test CRC 2F535A99
Copy CRC 2F535A99
Copy OK
No errors occurred
End of status report
Содержание индексной карты (.CUE)
REM GENRE Blues
REM DATE 2001
REM DISCID EF11480F
REM COMMENT "ExactAudioCopy v0.99pb5"
PERFORMER "Jim Mesi Band"
TITLE "Blues, Cars, and Electric Guitars"
FILE "01 - Pontiac Blues.wav" WAVE
TRACK 01 AUDIO
TITLE "Pontiac Blues"
PERFORMER "Jim Mesi Band"
INDEX 01 00:00:00
TRACK 02 AUDIO
TITLE "Dangerous Mood"
PERFORMER "Jim Mesi Band"
INDEX 00 03:33:69
FILE "02 - Dangerous Mood.wav" WAVE
INDEX 01 00:00:00
TRACK 03 AUDIO
TITLE "Goin' Back Home"
PERFORMER "Jim Mesi Band"
INDEX 00 07:14:28
FILE "03 - Goin' Back Home.wav" WAVE
INDEX 01 00:00:00
TRACK 04 AUDIO
TITLE "Come On If You're Comin'"
PERFORMER "Jim Mesi Band"
INDEX 00 05:10:11
FILE "04 - Come On If You're Comin'.wav" WAVE
INDEX 01 00:00:00
TRACK 05 AUDIO
TITLE "Blue Light Boogie"
PERFORMER "Jim Mesi Band"
INDEX 00 04:52:39
FILE "05 - Blue Light Boogie.wav" WAVE
INDEX 01 00:00:00
TRACK 06 AUDIO
TITLE "Rampage In C"
PERFORMER "Jim Mesi Band"
INDEX 00 09:50:11
FILE "06 - Rampage In C.wav" WAVE
INDEX 01 00:00:00
TRACK 07 AUDIO
TITLE "Too Much Stuff"
PERFORMER "Jim Mesi Band"
INDEX 00 02:16:26
FILE "07 - Too Much Stuff.wav" WAVE
INDEX 01 00:00:00
TRACK 08 AUDIO
TITLE "Body And Fender Man"
PERFORMER "Jim Mesi Band"
INDEX 00 04:12:67
FILE "08 - Body And Fender Man.wav" WAVE
INDEX 01 00:00:00
TRACK 09 AUDIO
TITLE "Apache"
PERFORMER "Jim Mesi Band"
INDEX 00 07:01:48
FILE "09 - Apache.wav" WAVE
INDEX 01 00:00:00
TRACK 10 AUDIO
TITLE "My Baby"
PERFORMER "Jim Mesi Band"
INDEX 00 04:05:49
FILE "10 - My Baby.wav" WAVE
INDEX 01 00:00:00
TRACK 11 AUDIO
TITLE "Misirlou (2001 Bridge Mix)"
PERFORMER "Jim Mesi Band"
INDEX 00 05:58:08
FILE "11 - Misirlou (2001 Bridge Mix).wav" WAVE
INDEX 01 00:00:00
TRACK 12 AUDIO
TITLE "Who's Foolin' Who?"
PERFORMER "Jim Mesi Band"
INDEX 00 03:47:51
FILE "12 - Who's Foolin' Who .wav" WAVE
INDEX 01 00:00:00
TRACK 13 AUDIO
TITLE "Me And Mr. Blue"
PERFORMER "Jim Mesi Band"
INDEX 00 04:30:48
FILE "13 - Me And Mr. Blue.wav" WAVE
INDEX 01 00:00:00
TRACK 14 AUDIO
TITLE "Surfin' On The Autobahn"
PERFORMER "Jim Mesi Band"
INDEX 00 05:25:38
FILE "14 - Surfin' On The Autobahn.wav" WAVE
INDEX 01 00:00:00
TRACK 15 AUDIO
TITLE "Norwegian Wood"
PERFORMER "Jim Mesi Band"
INDEX 00 02:35:19
FILE "15 - Norwegian Wood.wav" WAVE
INDEX 01 00:00:00
Лог проверки качества
DON'T MODIFY THIS FILE
-----------------------
PERFORMER: auCDtect Task Manager, ver. 1.5.1RC3 build 1.5.1.4
Copyright (c) 2008-2010 y-soft. All rights reserved
http://y-soft.org
ANALYZER: auCDtect: CD records authenticity detector, version 0.8.2
Copyright (c) 2004 Oleg Berngardt. All rights reserved.
Copyright (c) 2004 Alexander Djourik. All rights reserved.
FILE: 01 - Pontiac Blues.flac
Size: 26654344 Hash: 0A04B262FBE3AA27EF43F5831ACF6781 Accuracy: -m0
Conclusion: CDDA 100%
Signature: 59F1E8F6826830484A7A5FF385642A44AFE8AB2F
FILE: 02 - Dangerous Mood.flac
Size: 52136205 Hash: E070ECEB03B054B8A01BC25070309D39 Accuracy: -m0
Conclusion: CDDA 100%
Signature: 00A90ED96FFB359B106EC12A80025AD027042554
FILE: 03 - Goin' Back Home.flac
Size: 33437988 Hash: 6259CA991EB41686B86D628050D632A7 Accuracy: -m0
Conclusion: CDDA 100%
Signature: 3E1F96BF701AE92E2C2E632454A7B0BE4E407115
FILE: 04 - Come On If You're Comin'.flac
Size: 35717786 Hash: FDC058507786D858850DFE68C61DF6D9 Accuracy: -m0
Conclusion: CDDA 100%
Signature: 3E407C026FABC9FB74002572448FA78504CEBDA0
FILE: 05 - Blue Light Boogie.flac
Size: 66220702 Hash: 0498718F0292CFD63BBABB92F2BA748B Accuracy: -m0
Conclusion: CDDA 100%
Signature: 098833208AF7D71342B73D81EF4F71D38F9F7F8E
FILE: 06 - Rampage In C.flac
Size: 16232665 Hash: C9BBC651815842E4FA6F4350857D1AAA Accuracy: -m0
Conclusion: CDDA 100%
Signature: 421B103486E26778AA9C98B0985753AA549B1407
FILE: 07 - Too Much Stuff.flac
Size: 27793909 Hash: E3237E8D4D3FCD9F7F92659CAC080E89 Accuracy: -m0
Conclusion: CDDA 100%
Signature: F3A0CB384A526579FFF5514629FB828916C407A8
FILE: 08 - Body And Fender Man.flac
Size: 48813280 Hash: 4A93266440B2E8BB80D52019B0773127 Accuracy: -m0
Conclusion: CDDA 100%
Signature: 912F04347CEC5AD6B61602861C5AC0A809713752
FILE: 09 - Apache.flac
Size: 28529179 Hash: BA86B0CE78B5AD2B914B0C835F1017B7 Accuracy: -m0
Conclusion: CDDA 100%
Signature: 5F186A47886D1A667BD0C2298410FB673964A5FD
FILE: 10 - My Baby.flac
Size: 42691252 Hash: 4EEFE90ECBD5BF1209BDFE36701C0273 Accuracy: -m0
Conclusion: CDDA 100%
Signature: 3F71EFC14BA943E7C0F611D78DC034DD52169C5E
FILE: 11 - Misirlou (2001 Bridge Mix).flac
Size: 29993266 Hash: CF9675DEE8ACF40644427E7DA42C9F45 Accuracy: -m0
Conclusion: CDDA 100%
Signature: B95347C61B77FBF2CA9EE22175130B36B0C227C2
FILE: 13 - Me And Mr. Blue.flac
Size: 39727768 Hash: D4793388ABAE79AD0571284DA30EF4F3 Accuracy: -m0
Conclusion: CDDA 100%
Signature: 83F83E348419FAA39415DC3A7B40D273C3DDB75D
FILE: 14 - Surfin' On The Autobahn.flac
Size: 18427982 Hash: DEBFBE4D764994BFD876B3258D04059C Accuracy: -m0
Conclusion: CDDA 100%
Signature: 6666770CFF93DF3CE8CC971BCB4F3A98859394DF
FILE: 15 - Norwegian Wood.flac
Size: 17289799 Hash: 77A023BC7315C0CCAC9EF79D7795423D Accuracy: -m0
Conclusion: CDDA 99%
Signature: E106877F6E460ADD40BBFBCA5DE69113DFC8880E
Доп. информация: http://jimmesi.com/new/
http://www.cascadeblues.org/NWBlues/JimMesi/JimMesi.htm
http://www.youtube.com/watch?v=hCbFCbtj7mM
Download
Для скачивания .torrent файлов необходима регистрация
Сайт не распространяет и не хранит электронные версии произведений, а лишь предоставляет доступ к создаваемому пользователями каталогу ссылок на торрент-файлы, которые содержат только списки хеш-сумм
[Профиль]  [ЛС] 

19.26

Стаж: 10 лет 6 месяцев

Сообщений: 125


19.26 · 30-Окт-11 22:37 (спустя 1 час 58 мин.)

[Цитировать] 

а 12. Who's Foolin' Who? - ???
[Профиль]  [ЛС] 

рмх222

VIP (Заслуженный)

Стаж: 11 лет 2 месяца

Сообщений: 9251

рмх222 · 30-Окт-11 23:51 (спустя 1 час 13 мин.)

[Цитировать] 

19.26
12-я видно так понравилась, что жалко отдавать.
[Профиль]  [ЛС] 

Wtorm58

Top Seed 04* 320r

Стаж: 10 лет 2 месяца

Сообщений: 527

Wtorm58 · 31-Окт-11 07:22 (спустя 7 часов)

[Цитировать] 

рмх222 писал(а):
19.26
12-я видно так понравилась, что жалко отдавать.
Скрепя сердцем:)
Исправил.-перезагружаюсь.
[Профиль]  [ЛС] 

stm57

Стаж: 9 лет 11 месяцев

Сообщений: 281


stm57 · 02-Май-13 06:43 (спустя 1 год 6 месяцев)

[Цитировать] 

а где же сиды?
[Профиль]  [ЛС] 

wpsusa

Стаж: 7 лет 4 месяца

Сообщений: 169

wpsusa · 22-Мар-18 10:10 (спустя 4 года 10 месяцев, ред. 22-Мар-18 10:10)

[Цитировать] 

Скачать помогите пожалуйста Jim Mesi Band - Blues, Cars, and Electric Guitars С уважением
[Профиль]  [ЛС] 
 
Ответить
Loading...
Error