(New age, Ambient) [CD] Andreas Vollenweider - Down To The Moon - 1986, FLAC (tracks+.cue), lossless

Страницы:  1

Ответить
Автор
Сообщение

Аndy

Moderator

Стаж: 10 лет 3 месяца

Сообщений: 44401

Аndy · 21-Янв-18 21:50 (9 месяцев назад)

Andreas Vollenweider / Down To The Moon
Жанр: New age, Ambient
Носитель: CD
Год издания: 1986
Издатель (лейбл): Columbia
Номер по каталогу: COL 485165 2
Аудиокодек: FLAC (*.flac)
Тип рипа: tracks+.cue
Битрейт аудио: lossless
Продолжительность: 36:28
Источник (релизер): обмен
Наличие сканов в содержимом раздачи: да
Треклист:
01. Andreas Vollenweider - Down to the Moon [2:27]
02. Andreas Vollenweider - Moon Dance [4:10]
03. Andreas Vollenweider - Steam Forest [4:59]
04. Andreas Vollenweider - Water Moon [2:15]
05. Andreas Vollenweider - Night Fire Dance [4:58]
06. Andreas Vollenweider - Quiet Observer [2:44]
07. Andreas Vollenweider - Silver Wheel [3:58]
08. Andreas Vollenweider - Drown in Pale Light [2:14]
09. Andreas Vollenweider - The Secret, the Candle, and Love [3:43]
10. Andreas Vollenweider - Hush - Patience at Bamboo Forest [0:21]
11. Andreas Vollenweider - Three Silver Ladies Dance [2:34]
12. Andreas Vollenweider - La lune et l'enfant [2:05]
Лог создания рипа
Exact Audio Copy V1.0 beta 3 from 29. August 2011
EAC extraction logfile from 13. April 2015, 23:53
Andreas Vollenweider / Down to the Moon
Used drive : Optiarc DVD RW AD-7260S Adapter: 0 ID: 2
Read mode : Secure
Utilize accurate stream : Yes
Defeat audio cache : Yes
Make use of C2 pointers : No
Read offset correction : 48
Overread into Lead-In and Lead-Out : No
Fill up missing offset samples with silence : Yes
Delete leading and trailing silent blocks : No
Null samples used in CRC calculations : Yes
Used interface : Native Win32 interface for Win NT & 2000
Gap handling : Appended to previous track
Used output format : User Defined Encoder
Selected bitrate : 896 kBit/s
Quality : High
Add ID3 tag : No
Command line compressor : C:\Program Files (x86)\Exact Audio Copy\Flac\flac.exe
Additional command line options : -8 -V -T "ARTIST=%artist%" -T "TITLE=%title%" -T "ALBUM=%albumtitle%" -T "DATE=%year%" -T "TRACKNUMBER=%tracknr%" -T "TOTALTRACKS=%numtracks%" -T "GENRE=%genre%" -T "ALBUMARTIST=%albumartist%" -T "ALBUM ARTIST=%albumartist%" -T "COMMENT=EAC Secure Mode, Test & Copy, AccurateRip, FLAC -8" %source%
TOC of the extracted CD
Track | Start | Length | Start sector | End sector
---------------------------------------------------------
1 | 0:00.00 | 2:26.42 | 0 | 10991
2 | 2:26.42 | 4:10.08 | 10992 | 29749
3 | 6:36.50 | 4:58.65 | 29750 | 52164
4 | 11:35.40 | 2:15.32 | 52165 | 62321
5 | 13:50.72 | 4:58.13 | 62322 | 84684
6 | 18:49.10 | 2:44.37 | 84685 | 97021
7 | 21:33.47 | 3:57.58 | 97022 | 114854
8 | 25:31.30 | 2:13.65 | 114855 | 124894
9 | 27:45.20 | 3:43.07 | 124895 | 141626
10 | 31:28.27 | 0:20.55 | 141627 | 143181
11 | 31:49.07 | 2:34.03 | 143182 | 154734
12 | 34:23.10 | 2:04.65 | 154735 | 164099
Track 1
Filename D:\Nagrywanie\Andreas Vollenweider - Down to the Moon (1986) [FLAC] (Columbia 485 165 2)\01 - Down to the Moon.wav
Pre-gap length 0:00:02.00
Peak level 95.0 %
Extraction speed 2.1 X
Track quality 100.0 %
Test CRC F8E06AAC
Copy CRC F8E06AAC
Accurately ripped (confidence 6) [0E83C759] (AR v2)
Copy OK
Track 2
Filename D:\Nagrywanie\Andreas Vollenweider - Down to the Moon (1986) [FLAC] (Columbia 485 165 2)\02 - Moon Dance.wav
Peak level 98.0 %
Extraction speed 2.5 X
Track quality 100.0 %
Test CRC 40F5CD48
Copy CRC 40F5CD48
Accurately ripped (confidence 5) [EB01FBD8] (AR v2)
Copy OK
Track 3
Filename D:\Nagrywanie\Andreas Vollenweider - Down to the Moon (1986) [FLAC] (Columbia 485 165 2)\03 - Steam Forest.wav
Peak level 98.0 %
Extraction speed 2.8 X
Track quality 100.0 %
Test CRC 68DD87B5
Copy CRC 68DD87B5
Accurately ripped (confidence 6) [B10F94BD] (AR v2)
Copy OK
Track 4
Filename D:\Nagrywanie\Andreas Vollenweider - Down to the Moon (1986) [FLAC] (Columbia 485 165 2)\04 - Water Moon.wav
Peak level 86.1 %
Extraction speed 2.2 X
Track quality 99.9 %
Test CRC 3C4621AC
Copy CRC 3C4621AC
Accurately ripped (confidence 5) [3724D3ED] (AR v2)
Copy OK
Track 5
Filename D:\Nagrywanie\Andreas Vollenweider - Down to the Moon (1986) [FLAC] (Columbia 485 165 2)\05 - Night Fire Dance.wav
Peak level 98.0 %
Extraction speed 3.2 X
Track quality 100.0 %
Test CRC 126C9CCF
Copy CRC 126C9CCF
Accurately ripped (confidence 5) [F38CE9FC] (AR v2)
Copy OK
Track 6
Filename D:\Nagrywanie\Andreas Vollenweider - Down to the Moon (1986) [FLAC] (Columbia 485 165 2)\06 - Quiet Observer.wav
Peak level 96.8 %
Extraction speed 3.1 X
Track quality 100.0 %
Test CRC F70B112D
Copy CRC F70B112D
Accurately ripped (confidence 5) [B46A40A0] (AR v2)
Copy OK
Track 7
Filename D:\Nagrywanie\Andreas Vollenweider - Down to the Moon (1986) [FLAC] (Columbia 485 165 2)\07 - Silver Wheel.wav
Peak level 98.0 %
Extraction speed 3.5 X
Track quality 100.0 %
Test CRC 6CA300B3
Copy CRC 6CA300B3
Accurately ripped (confidence 6) [824D33F0] (AR v2)
Copy OK
Track 8
Filename D:\Nagrywanie\Andreas Vollenweider - Down to the Moon (1986) [FLAC] (Columbia 485 165 2)\08 - Drown in Pale Light.wav
Peak level 96.8 %
Extraction speed 3.2 X
Track quality 100.0 %
Test CRC FC2BB7B1
Copy CRC FC2BB7B1
Accurately ripped (confidence 5) [4C39A6B2] (AR v2)
Copy OK
Track 9
Filename D:\Nagrywanie\Andreas Vollenweider - Down to the Moon (1986) [FLAC] (Columbia 485 165 2)\09 - The Secret, the Candle, and Love.wav
Peak level 98.0 %
Extraction speed 3.2 X
Track quality 99.9 %
Test CRC 257210D1
Copy CRC 257210D1
Accurately ripped (confidence 5) [826585DC] (AR v2)
Copy OK
Track 10
Filename D:\Nagrywanie\Andreas Vollenweider - Down to the Moon (1986) [FLAC] (Columbia 485 165 2)\10 - Hush - Patience at Bamboo Forest.wav
Peak level 52.2 %
Extraction speed 1.5 X
Track quality 100.0 %
Test CRC 706CEA2C
Copy CRC 706CEA2C
Accurately ripped (confidence 5) [6887FD96] (AR v2)
Copy OK
Track 11
Filename D:\Nagrywanie\Andreas Vollenweider - Down to the Moon (1986) [FLAC] (Columbia 485 165 2)\11 - Three Silver Ladies Dance.wav
Peak level 98.0 %
Extraction speed 3.0 X
Track quality 99.9 %
Test CRC 6099284F
Copy CRC 6099284F
Accurately ripped (confidence 5) [185FDBD5] (AR v2)
Copy OK
Track 12
Filename D:\Nagrywanie\Andreas Vollenweider - Down to the Moon (1986) [FLAC] (Columbia 485 165 2)\12 - La lune et l'enfant.wav
Peak level 98.0 %
Extraction speed 2.9 X
Track quality 99.9 %
Test CRC A37ACE14
Copy CRC A37ACE14
Accurately ripped (confidence 5) [9CED3730] (AR v2)
Copy OK
All tracks accurately ripped
No errors occurred
End of status report
==== Log checksum 0E6ACDF1A838DDFC45483BD6BF4A9907F2E62B2B84127E1D2E09DEFC2BA0DF14 ====
Содержание индексной карты (.CUE)
REM GENRE "New Age"
REM DATE 1986
REM DISCID A8088C0C
REM COMMENT "ExactAudioCopy v1.0b3"
PERFORMER "Andreas Vollenweider"
TITLE "Down to the Moon"
FILE "01 - Down to the Moon.wav" WAVE
TRACK 01 AUDIO
TITLE "Down to the Moon"
PERFORMER "Andreas Vollenweider"
INDEX 01 00:00:00
FILE "02 - Moon Dance.wav" WAVE
TRACK 02 AUDIO
TITLE "Moon Dance"
PERFORMER "Andreas Vollenweider"
INDEX 01 00:00:00
FILE "03 - Steam Forest.wav" WAVE
TRACK 03 AUDIO
TITLE "Steam Forest"
PERFORMER "Andreas Vollenweider"
INDEX 01 00:00:00
FILE "04 - Water Moon.wav" WAVE
TRACK 04 AUDIO
TITLE "Water Moon"
PERFORMER "Andreas Vollenweider"
INDEX 01 00:00:00
FILE "05 - Night Fire Dance.wav" WAVE
TRACK 05 AUDIO
TITLE "Night Fire Dance"
PERFORMER "Andreas Vollenweider"
INDEX 01 00:00:00
FILE "06 - Quiet Observer.wav" WAVE
TRACK 06 AUDIO
TITLE "Quiet Observer"
PERFORMER "Andreas Vollenweider"
INDEX 01 00:00:00
FILE "07 - Silver Wheel.wav" WAVE
TRACK 07 AUDIO
TITLE "Silver Wheel"
PERFORMER "Andreas Vollenweider"
INDEX 01 00:00:00
FILE "08 - Drown in Pale Light.wav" WAVE
TRACK 08 AUDIO
TITLE "Drown in Pale Light"
PERFORMER "Andreas Vollenweider"
INDEX 01 00:00:00
FILE "09 - The Secret, the Candle, and Love.wav" WAVE
TRACK 09 AUDIO
TITLE "The Secret, the Candle, and Love"
PERFORMER "Andreas Vollenweider"
INDEX 01 00:00:00
FILE "10 - Hush - Patience at Bamboo Forest.wav" WAVE
TRACK 10 AUDIO
TITLE "Hush - Patience at Bamboo Forest"
PERFORMER "Andreas Vollenweider"
INDEX 01 00:00:00
FILE "11 - Three Silver Ladies Dance.wav" WAVE
TRACK 11 AUDIO
TITLE "Three Silver Ladies Dance"
PERFORMER "Andreas Vollenweider"
INDEX 01 00:00:00
FILE "12 - La lune et l'enfant.wav" WAVE
TRACK 12 AUDIO
TITLE "La lune et l'enfant"
PERFORMER "Andreas Vollenweider"
INDEX 01 00:00:00
Об исполнителе (группе)
Andreas Vollenweider's Grammy-winning 1987 effort is dominated by the Swiss musician's electrically modified harp. Its distinctive sound runs throughout the album, supported by the usual tinkering synthesizer effects and light percussion. After an extended introductory interlude, the title track zips into a vaguely Caribbean-styled rhythm. "Water Moon" features a different, more organic harp sound; it's mixed with the windy tones of a flute, suggesting ghostly moonshafts lancing through falling rain. Vollenweider plays the harp strings off of guitar strings on the surprisingly twangy (for new age, anyway) "Drown in Pale Light." The composer weaves the album's instrumentals together with a goody bag of pan-ethnic influences; the album's margins are full of these little touches that nevertheless make a big difference. Down to the Moon will appeal to anyone looking for music that's as interesting as it is soothing.
Download
Для скачивания .torrent файлов необходима регистрация
Сайт не распространяет и не хранит электронные версии произведений, а лишь предоставляет доступ к создаваемому пользователями каталогу ссылок на торрент-файлы, которые содержат только списки хеш-сумм
[Профиль]  [ЛС] 

dd9009

Top Seed 01* 40r

Стаж: 8 лет 2 месяца

Сообщений: 175

dd9009 · 03-Мар-18 11:59 (спустя 1 месяц 12 дней)

[Цитировать] 

Дай Бог тебе здоровья, мил человек.
[Профиль]  [ЛС] 
 
Ответить
Loading...
Error