Alicia Keys VH1 Storytellers [2013, R'n'B, Soul, Blu-ray]

:  1

meloman67

Moderator

: 9 5

: 5683

meloman67 · 11--14 17:11 (4 8 , . 11--14 17:49)

Alicia Keys
- VH1 Storytellers -

: R'n'B, Soul
: 00:53:49+00:19:31
: June 25, 2013
:
01. No One
02. Brand New Me
03. You Don't Know My Name
04. Not Even The King
05. Fallin'
06. If I Ain't Got You
07. Girl On Fire
08. New Day
09. Un-thinkable (I'm Ready)
10. Empire State Of Mind (Pt. II) Broken Down
11. Try Sleeping With A Broken Heart

: Blu-ray
: BDMV
: MPEG4
: PCM, Dolby AC3
: MPEG4 Video (H264) 1920x1080 29.97fps 39,84 Mbps
1: LPCM Audio English 2304 kbps 2.0 / 48 kHz / 2304 kbps / 24-bit
2: Dolby Digital Audio English 640 kbps 5.1 / 48 kHz / 640 kbps
3: LPCM Audio English 6912 kbps 5.1 / 48 kHz / 6912 kbps / 24-bit
MediaInfo / BDInfo
Disc Title:     Alicia Keys - VH1 Storytellers  2013 Blu-Ray
Disc Size: 22 448 598 827 bytes
Protection: AACS
BD-Java: No
BDInfo: 0.5.8
Notes:
BDINFO HOME:
Cinema Squid
http://www.cinemasquid.com/blu-ray/tools/bdinfo
INCLUDES FORUMS REPORT FOR:
AVS Forum Blu-ray Audio and Video Specifications Thread
http://www.avsforum.com/avs-vb/showthread.php?t=1155731
********************
PLAYLIST: 00010.MPLS
********************
<--- BEGIN FORUMS PASTE --->
:
Total   Video
Title                                                           Codec   Length  Movie Size      Disc Size       Bitrate Bitrate Main Audio Track                          Secondary Audio Track
-----                                                           ------  ------- --------------  --------------  ------- ------- ------------------                        ---------------------
00010.MPLS                                                      AVC     0:53:49 16083812352  22448598827  39,84   28,00   LPCM 2.0 2304Kbps (48kHz/24-bit)          DD AC3 5.1 640Kbps
:
DISC INFO:
Disc Title:     Alicia Keys - VH1 Storytellers  2013 Blu-Ray
Disc Size:      22448598827 bytes
Protection:     AACS
BD-Java:        No
BDInfo:         0.5.8
PLAYLIST REPORT:
Name:                   00010.MPLS
Length:                 0:53:49.459 (h:m:s.ms)
Size:                   16083812352 bytes
Total Bitrate:          39,84 Mbps
VIDEO:
Codec                   Bitrate             Description
-----                   -------             -----------
MPEG-4 AVC Video        27997 kbps          1080i / 29,970 fps / 16:9 / High Profile 4.1
AUDIO:
Codec                           Language        Bitrate         Description
-----                           --------        -------         -----------
LPCM Audio                      English         2304 kbps       2.0 / 48 kHz / 2304 kbps / 24-bit
Dolby Digital Audio             English         640 kbps        5.1 / 48 kHz / 640 kbps
LPCM Audio                      English         6912 kbps       5.1 / 48 kHz / 6912 kbps / 24-bit
FILES:
Name            Time In         Length          Size            Total Bitrate
----            -------         ------          ----            -------------
00009.M2TS      0:00:00.000     0:53:49.459     16083812352  39843
CHAPTERS:
Number          Time In         Length          Avg Video Rate  Max 1-Sec Rate  Max 1-Sec Time  Max 5-Sec Rate  Max 5-Sec Time  Max 10Sec Rate  Max 10Sec Time  Avg Frame Size  Max Frame Size  Max Frame Time
------          -------         ------          --------------  --------------  --------------  --------------  --------------  --------------  --------------  --------------  --------------  --------------
1               0:00:00.000     0:05:12.312     29367 kbps     38273 kbps     00:01:49.476    37055 kbps     00:01:00.760    36806 kbps     00:00:34.801    122471 bytes   517266 bytes   00:00:03.937
2               0:05:12.312     0:06:57.683     28757 kbps     38222 kbps     00:08:19.298    37080 kbps     00:08:44.524    36928 kbps     00:08:39.619    119942 bytes   368575 bytes   00:07:24.377
3               0:12:09.995     0:08:48.060     29068 kbps     39171 kbps     00:20:56.088    37104 kbps     00:18:32.978    36905 kbps     00:16:34.560    121236 bytes   388122 bytes   00:20:56.788
4               0:20:58.056     0:08:36.916     27996 kbps     39574 kbps     00:29:32.670    37069 kbps     00:27:42.794    36877 kbps     00:27:21.640    116768 bytes   403805 bytes   00:29:33.471
5               0:29:34.973     0:06:22.382     28325 kbps     39341 kbps     00:35:54.785    36947 kbps     00:34:29.200    35775 kbps     00:33:28.573    118138 bytes   368496 bytes   00:34:47.718
6               0:35:57.355     0:06:17.310     28990 kbps     38564 kbps     00:40:34.932    37187 kbps     00:42:07.725    36889 kbps     00:39:36.207    120913 bytes   387336 bytes   00:36:32.023
7               0:42:14.665     0:04:05.311     29622 kbps     40443 kbps     00:46:17.474    37085 kbps     00:44:05.075    36899 kbps     00:44:00.270    123548 bytes   389040 bytes   00:46:18.008
8               0:46:19.977     0:07:29.482     23081 kbps     37616 kbps     00:52:38.755    36705 kbps     00:51:55.312    34874 kbps     00:51:52.709    96274 bytes    351783 bytes   00:48:02.212
STREAM DIAGNOSTICS:
File            PID             Type            Codec           Language                Seconds                 Bitrate                 Bytes           Packets
----            ---             ----            -----           --------                --------------          --------------          -------------   -----
00009.M2TS      4113 (0x1011)   0x1B            AVC                                     3229,326                27998                  11301817103  61479321
00009.M2TS      4352 (0x1100)   0x80            LPCM            eng (English)           3229,326                2310                   932659384     5167088
00009.M2TS      4353 (0x1101)   0x81            AC3             eng (English)           3229,326                640                     258357760     1513815
00009.M2TS      4354 (0x1102)   0x80            LPCM            eng (English)           3229,326                6919                   2792837008   15501408
<---- END FORUMS PASTE ---->
QUICK SUMMARY:
Disc Title: Alicia Keys - VH1 Storytellers 2013 Blu-Ray
Disc Size: 22 448 598 827 bytes
Protection: AACS
BD-Java: No
Playlist: 00010.MPLS
Size: 16 083 812 352 bytes
Length: 0:53:49.459
Total Bitrate: 39,84 Mbps
Video: MPEG-4 AVC Video / 27997 kbps / 1080i / 29,970 fps / 16:9 / High Profile 4.1
Audio: English / LPCM Audio / 2.0 / 48 kHz / 2304 kbps / 24-bit
Audio: English / Dolby Digital Audio / 5.1 / 48 kHz / 640 kbps
Audio: English / LPCM Audio / 5.1 / 48 kHz / 6912 kbps / 24-bit
********************
PLAYLIST: 00016.MPLS
********************
<--- BEGIN FORUMS PASTE --->
:
Total   Video
Title                                                           Codec   Length  Movie Size      Disc Size       Bitrate Bitrate Main Audio Track                          Secondary Audio Track
-----                                                           ------  ------- --------------  --------------  ------- ------- ------------------                        ---------------------
00016.MPLS                                                      AVC     0:53:49 16083812352  22448598827  39,84   28,00   LPCM 2.0 2304Kbps (48kHz/24-bit)          DD AC3 5.1 640Kbps
:
DISC INFO:
Disc Title:     Alicia Keys - VH1 Storytellers  2013 Blu-Ray
Disc Size:      22448598827 bytes
Protection:     AACS
BD-Java:        No
BDInfo:         0.5.8
PLAYLIST REPORT:
Name:                   00016.MPLS
Length:                 0:53:49.459 (h:m:s.ms)
Size:                   16083812352 bytes
Total Bitrate:          39,84 Mbps
VIDEO:
Codec                   Bitrate             Description
-----                   -------             -----------
MPEG-4 AVC Video        27997 kbps          1080i / 29,970 fps / 16:9 / High Profile 4.1
AUDIO:
Codec                           Language        Bitrate         Description
-----                           --------        -------         -----------
LPCM Audio                      English         2304 kbps       2.0 / 48 kHz / 2304 kbps / 24-bit
Dolby Digital Audio             English         640 kbps        5.1 / 48 kHz / 640 kbps
LPCM Audio                      English         6912 kbps       5.1 / 48 kHz / 6912 kbps / 24-bit
FILES:
Name            Time In         Length          Size            Total Bitrate
----            -------         ------          ----            -------------
00009.M2TS      0:00:00.000     0:53:49.459     16083812352  39843
CHAPTERS:
Number          Time In         Length          Avg Video Rate  Max 1-Sec Rate  Max 1-Sec Time  Max 5-Sec Rate  Max 5-Sec Time  Max 10Sec Rate  Max 10Sec Time  Avg Frame Size  Max Frame Size  Max Frame Time
------          -------         ------          --------------  --------------  --------------  --------------  --------------  --------------  --------------  --------------  --------------  --------------
1               0:00:00.000     0:05:12.312     29367 kbps     38273 kbps     00:01:49.476    37055 kbps     00:01:00.760    36806 kbps     00:00:34.801    122471 bytes   517266 bytes   00:00:03.937
2               0:05:12.312     0:06:57.683     28757 kbps     38222 kbps     00:08:19.298    37080 kbps     00:08:44.524    36928 kbps     00:08:39.619    119942 bytes   368575 bytes   00:07:24.377
3               0:12:09.995     0:08:48.060     29068 kbps     39171 kbps     00:20:56.088    37104 kbps     00:18:32.978    36905 kbps     00:16:34.560    121236 bytes   388122 bytes   00:20:56.788
4               0:20:58.056     0:08:36.916     27996 kbps     39574 kbps     00:29:32.670    37069 kbps     00:27:42.794    36877 kbps     00:27:21.640    116768 bytes   403805 bytes   00:29:33.471
5               0:29:34.973     0:06:22.382     28325 kbps     39341 kbps     00:35:54.785    36947 kbps     00:34:29.200    35775 kbps     00:33:28.573    118138 bytes   368496 bytes   00:34:47.718
6               0:35:57.355     0:06:17.310     28990 kbps     38564 kbps     00:40:34.932    37187 kbps     00:42:07.725    36889 kbps     00:39:36.207    120913 bytes   387336 bytes   00:36:32.023
7               0:42:14.665     0:04:05.311     29622 kbps     40443 kbps     00:46:17.474    37085 kbps     00:44:05.075    36899 kbps     00:44:00.270    123548 bytes   389040 bytes   00:46:18.008
8               0:46:19.977     0:07:29.482     23081 kbps     37616 kbps     00:52:38.755    36705 kbps     00:51:55.312    34874 kbps     00:51:52.709    96274 bytes    351783 bytes   00:48:02.212
STREAM DIAGNOSTICS:
File            PID             Type            Codec           Language                Seconds                 Bitrate                 Bytes           Packets
----            ---             ----            -----           --------                --------------          --------------          -------------   -----
00009.M2TS      4113 (0x1011)   0x1B            AVC                                     3229,326                27998                  11301817103  61479321
00009.M2TS      4352 (0x1100)   0x80            LPCM            eng (English)           3229,326                2310                   932659384     5167088
00009.M2TS      4353 (0x1101)   0x81            AC3             eng (English)           3229,326                640                     258357760     1513815
00009.M2TS      4354 (0x1102)   0x80            LPCM            eng (English)           3229,326                6919                   2792837008   15501408
<---- END FORUMS PASTE ---->
QUICK SUMMARY:
Disc Title: Alicia Keys - VH1 Storytellers 2013 Blu-Ray
Disc Size: 22 448 598 827 bytes
Protection: AACS
BD-Java: No
Playlist: 00016.MPLS
Size: 16 083 812 352 bytes
Length: 0:53:49.459
Total Bitrate: 39,84 Mbps
Video: MPEG-4 AVC Video / 27997 kbps / 1080i / 29,970 fps / 16:9 / High Profile 4.1
Audio: English / LPCM Audio / 2.0 / 48 kHz / 2304 kbps / 24-bit
Audio: English / Dolby Digital Audio / 5.1 / 48 kHz / 640 kbps
Audio: English / LPCM Audio / 5.1 / 48 kHz / 6912 kbps / 24-bit
********************
PLAYLIST: 00902.MPLS
********************
<--- BEGIN FORUMS PASTE --->
:
Total   Video
Title                                                           Codec   Length  Movie Size      Disc Size       Bitrate Bitrate Main Audio Track                          Secondary Audio Track
-----                                                           ------  ------- --------------  --------------  ------- ------- ------------------                        ---------------------
00902.MPLS                                                      AVC     0:19:31 5834459136   22448598827  39,84   28,00   LPCM 2.0 2304Kbps (48kHz/24-bit)          DD AC3 5.1 640Kbps
:
DISC INFO:
Disc Title:     Alicia Keys - VH1 Storytellers  2013 Blu-Ray
Disc Size:      22448598827 bytes
Protection:     AACS
BD-Java:        No
BDInfo:         0.5.8
PLAYLIST REPORT:
Name:                   00902.MPLS
Length:                 0:19:31.503 (h:m:s.ms)
Size:                   5834459136 bytes
Total Bitrate:          39,84 Mbps
VIDEO:
Codec                   Bitrate             Description
-----                   -------             -----------
MPEG-4 AVC Video        27997 kbps          1080i / 29,970 fps / 16:9 / High Profile 4.1
AUDIO:
Codec                           Language        Bitrate         Description
-----                           --------        -------         -----------
LPCM Audio                      English         2304 kbps       2.0 / 48 kHz / 2304 kbps / 24-bit
Dolby Digital Audio             English         640 kbps        5.1 / 48 kHz / 640 kbps
LPCM Audio                      English         6912 kbps       5.1 / 48 kHz / 6912 kbps / 24-bit
FILES:
Name            Time In         Length          Size            Total Bitrate
----            -------         ------          ----            -------------
00015.M2TS      0:00:00.000     0:19:31.503     5834459136   39843
CHAPTERS:
Number          Time In         Length          Avg Video Rate  Max 1-Sec Rate  Max 1-Sec Time  Max 5-Sec Rate  Max 5-Sec Time  Max 10Sec Rate  Max 10Sec Time  Avg Frame Size  Max Frame Size  Max Frame Time
------          -------         ------          --------------  --------------  --------------  --------------  --------------  --------------  --------------  --------------  --------------  --------------
1               0:00:00.000     0:05:15.481     28450 kbps     39486 kbps     00:05:13.146    37431 kbps     00:05:09.108    35837 kbps     00:01:56.449    118646 bytes   382684 bytes   00:05:13.646
2               0:05:15.481     0:06:36.229     26817 kbps     38849 kbps     00:11:49.709    37109 kbps     00:10:36.235    36618 kbps     00:10:33.432    111850 bytes   377627 bytes   00:11:15.041
3               0:11:51.711     0:07:39.792     28702 kbps     39345 kbps     00:19:28.700    37113 kbps     00:17:31.083    36948 kbps     00:15:34.800    119720 bytes   382284 bytes   00:14:50.389
STREAM DIAGNOSTICS:
File            PID             Type            Codec           Language                Seconds                 Bitrate                 Bytes           Packets
----            ---             ----            -----           --------                --------------          --------------          -------------   -----
00015.M2TS      4113 (0x1011)   0x1B            AVC                                     1171,370                28000                  4099758778   22301734
00015.M2TS      4352 (0x1100)   0x80            LPCM            eng (English)           1171,370                2311                   338330644     1874408
00015.M2TS      4353 (0x1101)   0x81            AC3             eng (English)           1171,370                640                     93721600      549150
00015.M2TS      4354 (0x1102)   0x80            LPCM            eng (English)           1171,370                6919                   1013117524   5623224
<---- END FORUMS PASTE ---->
QUICK SUMMARY:
Disc Title: Alicia Keys - VH1 Storytellers 2013 Blu-Ray
Disc Size: 22 448 598 827 bytes
Protection: AACS
BD-Java: No
Playlist: 00902.MPLS
Size: 5 834 459 136 bytes
Length: 0:19:31.503
Total Bitrate: 39,84 Mbps
Video: MPEG-4 AVC Video / 27997 kbps / 1080i / 29,970 fps / 16:9 / High Profile 4.1
Audio: English / LPCM Audio / 2.0 / 48 kHz / 2304 kbps / 24-bit
Audio: English / Dolby Digital Audio / 5.1 / 48 kHz / 640 kbps
Audio: English / LPCM Audio / 5.1 / 48 kHz / 6912 kbps / 24-bit
********************
PLAYLIST: 00903.MPLS
********************
<--- BEGIN FORUMS PASTE --->
:
Total   Video
Title                                                           Codec   Length  Movie Size      Disc Size       Bitrate Bitrate Main Audio Track                          Secondary Audio Track
-----                                                           ------  ------- --------------  --------------  ------- ------- ------------------                        ---------------------
00903.MPLS                                                      AVC     0:19:31 5834459136   22448598827  39,84   28,00   LPCM 2.0 2304Kbps (48kHz/24-bit)          DD AC3 5.1 640Kbps
:
DISC INFO:
Disc Title:     Alicia Keys - VH1 Storytellers  2013 Blu-Ray
Disc Size:      22448598827 bytes
Protection:     AACS
BD-Java:        No
BDInfo:         0.5.8
PLAYLIST REPORT:
Name:                   00903.MPLS
Length:                 0:19:31.503 (h:m:s.ms)
Size:                   5834459136 bytes
Total Bitrate:          39,84 Mbps
VIDEO:
Codec                   Bitrate             Description
-----                   -------             -----------
MPEG-4 AVC Video        27997 kbps          1080i / 29,970 fps / 16:9 / High Profile 4.1
AUDIO:
Codec                           Language        Bitrate         Description
-----                           --------        -------         -----------
LPCM Audio                      English         2304 kbps       2.0 / 48 kHz / 2304 kbps / 24-bit
Dolby Digital Audio             English         640 kbps        5.1 / 48 kHz / 640 kbps
LPCM Audio                      English         6912 kbps       5.1 / 48 kHz / 6912 kbps / 24-bit
FILES:
Name            Time In         Length          Size            Total Bitrate
----            -------         ------          ----            -------------
00015.M2TS      0:00:00.000     0:19:31.503     5834459136   39843
CHAPTERS:
Number          Time In         Length          Avg Video Rate  Max 1-Sec Rate  Max 1-Sec Time  Max 5-Sec Rate  Max 5-Sec Time  Max 10Sec Rate  Max 10Sec Time  Avg Frame Size  Max Frame Size  Max Frame Time
------          -------         ------          --------------  --------------  --------------  --------------  --------------  --------------  --------------  --------------  --------------  --------------
1               0:00:00.000     0:05:15.481     28450 kbps     39486 kbps     00:05:13.146    37431 kbps     00:05:09.108    35837 kbps     00:01:56.449    118646 bytes   382684 bytes   00:05:13.646
2               0:05:15.481     0:06:36.229     26817 kbps     38849 kbps     00:11:49.709    37109 kbps     00:10:36.235    36618 kbps     00:10:33.432    111850 bytes   377627 bytes   00:11:15.041
3               0:11:51.711     0:07:39.792     28702 kbps     39345 kbps     00:19:28.700    37113 kbps     00:17:31.083    36948 kbps     00:15:34.800    119720 bytes   382284 bytes   00:14:50.389
STREAM DIAGNOSTICS:
File            PID             Type            Codec           Language                Seconds                 Bitrate                 Bytes           Packets
----            ---             ----            -----           --------                --------------          --------------          -------------   -----
00015.M2TS      4113 (0x1011)   0x1B            AVC                                     1171,370                28000                  4099758778   22301734
00015.M2TS      4352 (0x1100)   0x80            LPCM            eng (English)           1171,370                2311                   338330644     1874408
00015.M2TS      4353 (0x1101)   0x81            AC3             eng (English)           1171,370                640                     93721600      549150
00015.M2TS      4354 (0x1102)   0x80            LPCM            eng (English)           1171,370                6919                   1013117524   5623224
<---- END FORUMS PASTE ---->
QUICK SUMMARY:
Disc Title: Alicia Keys - VH1 Storytellers 2013 Blu-Ray
Disc Size: 22 448 598 827 bytes
Protection: AACS
BD-Java: No
Playlist: 00903.MPLS
Size: 5 834 459 136 bytes
Length: 0:19:31.503
Total Bitrate: 39,84 Mbps
Video: MPEG-4 AVC Video / 27997 kbps / 1080i / 29,970 fps / 16:9 / High Profile 4.1
Audio: English / LPCM Audio / 2.0 / 48 kHz / 2304 kbps / 24-bit
Audio: English / Dolby Digital Audio / 5.1 / 48 kHz / 640 kbps
Audio: English / LPCM Audio / 5.1 / 48 kHz / 6912 kbps / 24-bit
********************
PLAYLIST: 00012.MPLS
********************
<--- BEGIN FORUMS PASTE --->
:
Total   Video
Title                                                           Codec   Length  Movie Size      Disc Size       Bitrate Bitrate Main Audio Track                          Secondary Audio Track
-----                                                           ------  ------- --------------  --------------  ------- ------- ------------------                        ---------------------
00012.MPLS                                                      AVC     0:00:54 238331904     22448598827  34,80   27,98   LPCM 2.0 1536Kbps (48kHz/16-bit)          LPCM 2.0 1536Kbps (48kHz/16-bit)
:
DISC INFO:
Disc Title:     Alicia Keys - VH1 Storytellers  2013 Blu-Ray
Disc Size:      22448598827 bytes
Protection:     AACS
BD-Java:        No
BDInfo:         0.5.8
PLAYLIST REPORT:
Name:                   00012.MPLS
Length:                 0:00:54.788 (h:m:s.ms)
Size:                   238331904 bytes
Total Bitrate:          34,80 Mbps
VIDEO:
Codec                   Bitrate             Description
-----                   -------             -----------
MPEG-4 AVC Video        27976 kbps          1080i / 29,970 fps / 16:9 / High Profile 4.1
AUDIO:
Codec                           Language        Bitrate         Description
-----                           --------        -------         -----------
LPCM Audio                      English         1536 kbps       2.0 / 48 kHz / 1536 kbps / 16-bit
LPCM Audio                      English         1536 kbps       2.0 / 48 kHz / 1536 kbps / 16-bit
LPCM Audio                      English         1536 kbps       2.0 / 48 kHz / 1536 kbps / 16-bit
FILES:
Name            Time In         Length          Size            Total Bitrate
----            -------         ------          ----            -------------
00013.M2TS      0:00:00.000     0:00:54.788     238331904     34801
CHAPTERS:
Number          Time In         Length          Avg Video Rate  Max 1-Sec Rate  Max 1-Sec Time  Max 5-Sec Rate  Max 5-Sec Time  Max 10Sec Rate  Max 10Sec Time  Avg Frame Size  Max Frame Size  Max Frame Time
------          -------         ------          --------------  --------------  --------------  --------------  --------------  --------------  --------------  --------------  --------------  --------------
1               0:00:00.000     0:00:54.788     27976 kbps     34461 kbps     00:00:52.919    32144 kbps     00:00:48.915    32004 kbps     00:00:43.910    116683 bytes   507369 bytes   00:00:50.050
STREAM DIAGNOSTICS:
File            PID             Type            Codec           Language                Seconds                 Bitrate                 Bytes           Packets
----            ---             ----            -----           --------                --------------          --------------          -------------   -----
00013.M2TS      4113 (0x1011)   0x1B            AVC                                     54,655                  28044                  191592837     1042218
00013.M2TS      4352 (0x1100)   0x80            LPCM            eng (English)           54,655                  1546                   10563512      65748
00013.M2TS      4353 (0x1101)   0x80            LPCM            eng (English)           54,655                  1546                   10563512      65748
00013.M2TS      4354 (0x1102)   0x80            LPCM            eng (English)           54,655                  1546                   10563512      65748
<---- END FORUMS PASTE ---->
QUICK SUMMARY:
Disc Title: Alicia Keys - VH1 Storytellers 2013 Blu-Ray
Disc Size: 22 448 598 827 bytes
Protection: AACS
BD-Java: No
Playlist: 00012.MPLS
Size: 238 331 904 bytes
Length: 0:00:54.788
Total Bitrate: 34,80 Mbps
Video: MPEG-4 AVC Video / 27976 kbps / 1080i / 29,970 fps / 16:9 / High Profile 4.1
Audio: English / LPCM Audio / 2.0 / 48 kHz / 1536 kbps / 16-bit
Audio: English / LPCM Audio / 2.0 / 48 kHz / 1536 kbps / 16-bit
Audio: English / LPCM Audio / 2.0 / 48 kHz / 1536 kbps / 16-bit
********************
PLAYLIST: 00013.MPLS
********************
<--- BEGIN FORUMS PASTE --->
:
Total   Video
Title                                                           Codec   Length  Movie Size      Disc Size       Bitrate Bitrate Main Audio Track                          Secondary Audio Track
-----                                                           ------  ------- --------------  --------------  ------- ------- ------------------                        ---------------------
00013.MPLS                                                      AVC     0:00:54 238448640     22448598827  34,82   27,99   LPCM 2.0 1536Kbps (48kHz/16-bit)          LPCM 2.0 1536Kbps (48kHz/16-bit)
:
DISC INFO:
Disc Title:     Alicia Keys - VH1 Storytellers  2013 Blu-Ray
Disc Size:      22448598827 bytes
Protection:     AACS
BD-Java:        No
BDInfo:         0.5.8
PLAYLIST REPORT:
Name:                   00013.MPLS
Length:                 0:00:54.788 (h:m:s.ms)
Size:                   238448640 bytes
Total Bitrate:          34,82 Mbps
VIDEO:
Codec                   Bitrate             Description
-----                   -------             -----------
MPEG-4 AVC Video        27993 kbps          1080i / 29,970 fps / 16:9 / High Profile 4.1
AUDIO:
Codec                           Language        Bitrate         Description
-----                           --------        -------         -----------
LPCM Audio                      English         1536 kbps       2.0 / 48 kHz / 1536 kbps / 16-bit
LPCM Audio                      English         1536 kbps       2.0 / 48 kHz / 1536 kbps / 16-bit
LPCM Audio                      English         1536 kbps       2.0 / 48 kHz / 1536 kbps / 16-bit
FILES:
Name            Time In         Length          Size            Total Bitrate
----            -------         ------          ----            -------------
00014.M2TS      0:00:00.000     0:00:54.788     238448640     34818
CHAPTERS:
Number          Time In         Length          Avg Video Rate  Max 1-Sec Rate  Max 1-Sec Time  Max 5-Sec Rate  Max 5-Sec Time  Max 10Sec Rate  Max 10Sec Time  Avg Frame Size  Max Frame Size  Max Frame Time
------          -------         ------          --------------  --------------  --------------  --------------  --------------  --------------  --------------  --------------  --------------  --------------
1               0:00:00.000     0:00:54.788     27993 kbps     30414 kbps     00:00:52.919    28347 kbps     00:00:48.915    28212 kbps     00:00:43.910    116753 bytes   470163 bytes   00:00:27.027
STREAM DIAGNOSTICS:
File            PID             Type            Codec           Language                Seconds                 Bitrate                 Bytes           Packets
----            ---             ----            -----           --------                --------------          --------------          -------------   -----
00014.M2TS      4113 (0x1011)   0x1B            AVC                                     54,655                  28061                  191708644     1042846
00014.M2TS      4352 (0x1100)   0x80            LPCM            eng (English)           54,655                  1546                   10563512      65748
00014.M2TS      4353 (0x1101)   0x80            LPCM            eng (English)           54,655                  1546                   10563512      65748
00014.M2TS      4354 (0x1102)   0x80            LPCM            eng (English)           54,655                  1546                   10563512      65748
<---- END FORUMS PASTE ---->
QUICK SUMMARY:
Disc Title: Alicia Keys - VH1 Storytellers 2013 Blu-Ray
Disc Size: 22 448 598 827 bytes
Protection: AACS
BD-Java: No
Playlist: 00013.MPLS
Size: 238 448 640 bytes
Length: 0:00:54.788
Total Bitrate: 34,82 Mbps
Video: MPEG-4 AVC Video / 27993 kbps / 1080i / 29,970 fps / 16:9 / High Profile 4.1
Audio: English / LPCM Audio / 2.0 / 48 kHz / 1536 kbps / 16-bit
Audio: English / LPCM Audio / 2.0 / 48 kHz / 1536 kbps / 16-bit
Audio: English / LPCM Audio / 2.0 / 48 kHz / 1536 kbps / 16-bit
********************
PLAYLIST: 00009.MPLS
********************
<--- BEGIN FORUMS PASTE --->
:
Total   Video
Title                                                           Codec   Length  Movie Size      Disc Size       Bitrate Bitrate Main Audio Track                          Secondary Audio Track
-----                                                           ------  ------- --------------  --------------  ------- ------- ------------------                        ---------------------
00009.MPLS                                                      AVC     0:00:33 32980992      22448598827  7,99    2,28    LPCM 2.0 1536Kbps (48kHz/16-bit)          LPCM 2.0 1536Kbps (48kHz/16-bit)
:
DISC INFO:
Disc Title:     Alicia Keys - VH1 Storytellers  2013 Blu-Ray
Disc Size:      22448598827 bytes
Protection:     AACS
BD-Java:        No
BDInfo:         0.5.8
PLAYLIST REPORT:
Name:                   00009.MPLS
Length:                 0:00:33.033 (h:m:s.ms)
Size:                   32980992 bytes
Total Bitrate:          7,99 Mbps
VIDEO:
Codec                   Bitrate             Description
-----                   -------             -----------
MPEG-4 AVC Video        2277 kbps           1080i / 29,970 fps / 16:9 / High Profile 4.1
AUDIO:
Codec                           Language        Bitrate         Description
-----                           --------        -------         -----------
LPCM Audio                      English         1536 kbps       2.0 / 48 kHz / 1536 kbps / 16-bit
LPCM Audio                      English         1536 kbps       2.0 / 48 kHz / 1536 kbps / 16-bit
LPCM Audio                      English         1536 kbps       2.0 / 48 kHz / 1536 kbps / 16-bit
FILES:
Name            Time In         Length          Size            Total Bitrate
----            -------         ------          ----            -------------
00008.M2TS      0:00:00.000     0:00:33.033     32980992      7987
CHAPTERS:
Number          Time In         Length          Avg Video Rate  Max 1-Sec Rate  Max 1-Sec Time  Max 5-Sec Rate  Max 5-Sec Time  Max 10Sec Rate  Max 10Sec Time  Avg Frame Size  Max Frame Size  Max Frame Time
------          -------         ------          --------------  --------------  --------------  --------------  --------------  --------------  --------------  --------------  --------------  --------------
1               0:00:00.000     0:00:33.033     2277 kbps      8576 kbps      00:00:22.622    3835 kbps      00:00:21.020    3350 kbps      00:00:22.522    9497 bytes     183505 bytes   00:00:30.030
STREAM DIAGNOSTICS:
File            PID             Type            Codec           Language                Seconds                 Bitrate                 Bytes           Packets
----            ---             ----            -----           --------                --------------          --------------          -------------   -----
00008.M2TS      4113 (0x1011)   0x1B            AVC                                     32,900                  2286                   9402394       51710
00008.M2TS      4352 (0x1100)   0x80            LPCM            eng (English)           32,900                  1549                   6369148       39642
00008.M2TS      4353 (0x1101)   0x80            LPCM            eng (English)           32,900                  1549                   6369148       39642
00008.M2TS      4354 (0x1102)   0x80            LPCM            eng (English)           32,900                  1549                   6369148       39642
<---- END FORUMS PASTE ---->
QUICK SUMMARY:
Disc Title: Alicia Keys - VH1 Storytellers 2013 Blu-Ray
Disc Size: 22 448 598 827 bytes
Protection: AACS
BD-Java: No
Playlist: 00009.MPLS
Size: 32 980 992 bytes
Length: 0:00:33.033
Total Bitrate: 7,99 Mbps
Video: MPEG-4 AVC Video / 2277 kbps / 1080i / 29,970 fps / 16:9 / High Profile 4.1
Audio: English / LPCM Audio / 2.0 / 48 kHz / 1536 kbps / 16-bit
Audio: English / LPCM Audio / 2.0 / 48 kHz / 1536 kbps / 16-bit
Audio: English / LPCM Audio / 2.0 / 48 kHz / 1536 kbps / 16-bit
Download
.torrent
  ·   torrent ()
, -, -
[]  [] 

michaelcorleone

: 7 2

: 242

michaelcorleone · 31--14 13:05 ( 19 )

[] 


, , . .

[]  [] 

meloman 2

: 6 5

: 4


meloman 2 · 02--14 17:31 ( 2 4 )

[] 

! ? --!
[]  [] 

alextayu

Top Seed 02* 80r

: 9 11

: 511

alextayu · 29--17 13:51 ( 3 10 )

[] 

! , . !
!
[]  [] 
 
Loading...
Error