(New age/instrumental) Andreas Vollenweider - "Down to the Moon". - 1986, (digitally mastered analog recording) FLAC (image+.cue), lossless

Страницы:  1

Ответить
Автор
Сообщение

odissei2

Стаж: 10 лет 11 месяцев

Сообщений: 113

odissei2 · 03-Янв-10 22:35 (8 лет 10 месяцев назад, ред. 06-Янв-10 14:52)

Andreas Vollenweider "Down to the Moon".
Жанр: New age/instrumental
Год выпуска диска: 1986
Производитель диска: USA
Аудио кодек: FLAC
Тип рипа: image+.cue
Битрейт аудио: lossless
Продолжительность: 36:21
Трэклист:
The Near side.
1 - Down To The Moon. 2:26
2 - Moon Dance. 4:11
3 - Steam Forest. 4:56
4 - Water Moon. 2:16
5 - Night Fire Dance. 4:56
The Far side.
6 - Quiet Observer. 2:43
7 - Silver Wheel. 3:58
8 - Brown in Pale Light. 2:13
9 - The Secret, The Candle, And Love. 3:44
10 - Hush - Patience At Bomboo Forest. 0:12
11 - Three Silver Ladies Dance. 2:41
12 - La Lune Et L'Enfant. 2:01
Доп. информация:
Andreas Vollenweider: moon harpa
Walter Kaiser: moon drums
Pedro Haldemann: moon bells
Christoph Stiefel: moon keys
Jon Otis: moon beats
Matthias Ziegler: moon winds
Max Laesser: moon strings
The Silver Symphony And Choir.
Recorded spring 1986 at the Sinus studio, Bern, Switzerland.
CBS RECORDS 1986 AVAF. MK 42255
Фото обложек прилагается.
Отчёт EAC
Exact Audio Copy V0.99 prebeta 2 from 28. July 2007
Отчёт EAC об извлечении, выполненном 3. января 2010, 19:30
Andreas Vollenweider / Down to the Moon
Дисковод: TSSTcorpCD/DVDW TS-L632D Adapter: 1 ID: 0
Режим чтения : Достоверность
Использование точного потока : Да
Отключение кэша аудио : Да
Использование указателей C2 : Нет
Коррекция смещения при чтении : 6
Способность читать области Lead-in и Lead-out : Нет
Заполнение пропущенных сэмплов тишиной : Да
Удаление блоков с тишиной в начале и конце : Нет
При вычислениях CRC использовались нулевые сэмплы : Да
Интерфейс : Встроенный Win32-интерфейс для Win NT/2000
Выходной формат : Пользовательский кодировщик
Выбранный битрейт : 128 kBit/s
Качество : Высокий
Добавление ID3-тэга : Нет
Утилита сжатия : C:\Program Files\Exact Audio Copy\Flac\flac.exe
Дополнительные параметры : -T "DATE=%y" -T "GENRE=%m" -8 -V %s
TOC извлечённого CD
Трек | Старт | Длительность | Начальный сектор | Конечный сектор
---------------------------------------------------------------------
1 | 0:00.00 | 2:26.57 | 0 | 11006
2 | 2:26.57 | 4:11.38 | 11007 | 29869
3 | 6:38.20 | 4:56.10 | 29870 | 52079
4 | 11:34.30 | 2:15.15 | 52080 | 62219
5 | 13:49.45 | 4:56.70 | 62220 | 84489
6 | 18:46.40 | 2:43.65 | 84490 | 96779
7 | 21:30.30 | 3:57.50 | 96780 | 114604
8 | 25:28.05 | 2:13.20 | 114605 | 124599
9 | 27:41.25 | 3:44.10 | 124600 | 141409
10 | 31:25.35 | 0:12.00 | 141410 | 142309
11 | 31:37.35 | 2:40.57 | 142310 | 154366
12 | 34:18.17 | 2:00.68 | 154367 | 163434
Характеристики диапазона извлечения и сообщения об ошибках
Выбранный диапазон
Имя файла C:\MyWorks\запись сд\Andreas Vollenweider - Down to the Moon.wav
Пиковый уровень 93.4 %
Качество диапазона 100.0 %
CRC теста 1254AEC0
CRC копии 1254AEC0
Копирование... OK
Ошибок не произошло
AccurateRip: сводка
Трек 1 точное извлечение (доверие 12) [5502F74E]
Трек 2 точное извлечение (доверие 12) [F8936204]
Трек 3 точное извлечение (доверие 13) [3743AD69]
Трек 4 точное извлечение (доверие 13) [16B5EFA8]
Трек 5 точное извлечение (доверие 13) [93658951]
Трек 6 точное извлечение (доверие 13) [C6ACEA4F]
Трек 7 точное извлечение (доверие 13) [FAF18607]
Трек 8 точное извлечение (доверие 13) [FF9CEEB2]
Трек 9 точное извлечение (доверие 13) [2A490EE3]
Трек 10 точное извлечение (доверие 13) [C52E29B1]
Трек 11 точное извлечение (доверие 13) [57D230C1]
Трек 12 точное извлечение (доверие 13) [A8A80D6F]
Все треки извлечены точно
Конец отчёта
Download
Для скачивания .torrent файлов необходима регистрация
Сайт не распространяет и не хранит электронные версии произведений, а лишь предоставляет доступ к создаваемому пользователями каталогу ссылок на торрент-файлы, которые содержат только списки хеш-сумм
[Профиль]  [ЛС] 

dj_mhz

Стаж: 3 года 1 месяц

Сообщений: 7


dj_mhz · 27-Фев-17 13:22 (спустя 7 лет 1 месяц)

[Цитировать] 

Есть этот шедевр на другом издании COL 485165 2 (Columbia Sony Music). Звучит, на удивление, заметно лучше этого образца!!!
[Профиль]  [ЛС] 

alf2048

Стаж: 9 лет 10 месяцев

Сообщений: 38


alf2048 · 01-Ноя-18 14:57 (спустя 1 год 8 месяцев)

[Цитировать] 

он уже раздаётся
[Профиль]  [ЛС] 
 
Ответить
Loading...
Error