(New Age) George Winston - Remembrance - 2001, FLAC (tracks) lossless

Страницы:  1

Ответить
Автор
Сообщение

andreykachinskiy

Стаж: 8 лет 4 месяца

Сообщений: 24

andreykachinskiy · 11-Дек-10 20:27 (7 лет 7 месяцев назад)

George Winston / Remembrance
Жанр: New Age
Страна-производитель диска: USA
Год издания диска: 2001
Издатель (лейбл): Windham Hill
Номер по каталогу: 01934-11624-2
Страна: USA
Аудио кодек: FLAC (*.flac)
Тип рипа: tracks
Битрейт аудио: lossless
Продолжительность: 29:05
Источник (релизер): Demonoid
Наличие сканов в содержимом раздачи: да
Треклист:
01 - George Winston - Lament
02 - George Winston - Where Are You Now
03 - George Winston - Remembrance
04 - George Winston - Where The Sun Rises First
05 - George Winston - Farewell-Kindness Emerging-America
06 - George Winston - Daughters And Sons
Лог создания рипа
dBpoweramp Release 13 Digital Audio Extraction Log from Monday, 18 August 2008 10:03 PM
Drive & Settings
----------------
Ripping with drive 'D: [HL-DT-ST - DVDRAM GSA-4163B]', Drive offset: 667, Overread Lead-in/out: No
AccurateRip: Active, Using C2: No, Cache: None, FUA Cache Invalidate: Yes
Pass 1 Drive Speed: Max, Pass 2 Drive Speed: Max
Ultra:: Vary Drive Speed: No, Min Passes: 3, Max Passes: 6, Finish After Clean Passes: 2
Bad Sector Re-rip:: Drive Speed: Max, Maximum Re-reads: 34
Encoder: FLAC -compression-level-8 -verify
Extraction Log
--------------
Track 1: Ripped LBA 0 to 11192 (2:29) in 0:46. Filename: F:\Audio\Ripped\George Winston\Remembrance\01--Lament.flac
AccurateRip: Inaccurate (confidence 3) Secure [Pass 1 & 2, Ultra 1 to 3]
CRC32: 9FED2C4F AccurateRip CRC: 9502424B [DiscID: 006-00062123-0022315b-4206d106-1]
Track 2: Ripped LBA 11192 to 29855 (4:08) in 1:02. Filename: F:\Audio\Ripped\George Winston\Remembrance\02--Where Are You Now.flac
AccurateRip: Inaccurate (confidence 3) Secure [Pass 1 & 2, Ultra 1 to 3]
CRC32: 82D23D94 AccurateRip CRC: 1E0E2EBB [DiscID: 006-00062123-0022315b-4206d106-2]
Track 3: Ripped LBA 29855 to 47440 (3:54) in 0:53. Filename: F:\Audio\Ripped\George Winston\Remembrance\03--Remembrance.flac
AccurateRip: Inaccurate (confidence 3) Secure [Pass 1 & 2, Ultra 1 to 3]
CRC32: C5CF848B AccurateRip CRC: 88A85E1E [DiscID: 006-00062123-0022315b-4206d106-3]
Track 4: Ripped LBA 47440 to 71015 (5:14) in 1:05. Filename: F:\Audio\Ripped\George Winston\Remembrance\04--Where the Sun Rises First (Kumakahi).flac
AccurateRip: Inaccurate (confidence 3) Secure [Pass 1 & 2, Ultra 1 to 3]
CRC32: 49CDC45D AccurateRip CRC: B41A97E7 [DiscID: 006-00062123-0022315b-4206d106-4]
Track 5: Ripped LBA 71015 to 111305 (8:57) in 1:42. Filename: F:\Audio\Ripped\George Winston\Remembrance\05--Farewell - Kindness Emerging - America, My Country 'Tis of Thee - Taps.flac
AccurateRip: Inaccurate (confidence 3) Secure [Pass 1 & 2, Ultra 1 to 3]
CRC32: 27F8BE4D AccurateRip CRC: 45969338 [DiscID: 006-00062123-0022315b-4206d106-5]
Track 6: Ripped LBA 111305 to 130892 (4:21) in 0:44. Filename: F:\Audio\Ripped\George Winston\Remembrance\06--Daughters and Sons.flac
AccurateRip: Inaccurate (confidence 3) Secure [Pass 1 & 2, Ultra 1 to 3]
CRC32: CB2DE1EE AccurateRip CRC: 1D27065D [DiscID: 006-00062123-0022315b-4206d106-6]
--------------
6 Tracks Ripped Securely (AccurateRip: Different Pressing?)
Download
Для скачивания .torrent файлов необходима регистрация
Сайт не распространяет и не хранит электронные версии произведений, а лишь предоставляет доступ к создаваемому пользователями каталогу ссылок на торрент-файлы, которые содержат только списки хеш-сумм
[Профиль]  [ЛС] 

andreykachinskiy

Стаж: 8 лет 4 месяца

Сообщений: 24

andreykachinskiy · 12-Дек-10 14:30 (спустя 18 часов)

[Цитировать] 

George Winston / Night Divides the Day - The Music of the Doors http://rutracker.org/forum/viewtopic.php?t=3300471
[Профиль]  [ЛС] 
 
Ответить
Loading...
Error