(New Age, Instrumental, Piano Solos) George Winston - Love Will Come - The Music of Vince Guaraldi Vol 2 - 2010, FLAC (tracks+.cue), lossless

Страницы:  1

Ответить
Автор
Сообщение

ompj

Стаж: 8 лет 5 месяцев

Сообщений: 2

ompj · 13-Июн-10 20:49 (8 лет 5 месяцев назад, ред. 14-Июн-10 10:43)

George Winston - Love Will Come - The Music of Vince Guaraldi Vol 2
Genre: New Age, Instrumental, Piano Solos
Release Year: 2010
Manufacturer Countery: U.S.A.
Label: RCA Victor
Audio Codec: FLAC
Type rip: tracks+.cue
Bitrate: lossless
Duration: 62:00
Track List:
01 - Time for Love
02 - It Was a Short Summer, Charlie Brown
03 - Macedonia/Little David
04 - Woodstock
05 - Fenwyck's Farfel/Calling Dr. Funk
06 - Room at the Bottom
07 - Air Music
08 - Be My Valentine, Charlie Brown
09 - You're Elected, Charlie Brown/Little Birdie
10 - Brasilia
11 - Jambo's (Casaba)
12 - Pebble Beach/Dolores Park
13 - Love Will Come/Slow Dance
14 - Rain, Rain, Go Away
15 - Nobody Else
16 - Love Will Come 2
EAC log
Exact Audio Copy V0.99 prebeta 5 from 4. May 2009
EAC extraction logfile from 4. March 2010, 0:39
George Winston / Love Will Come - The Music of Vince Guaraldi Vol 2
Used drive : PLEXTOR DVDR PX-751A Adapter: 6 ID: 0
Read mode : Secure
Utilize accurate stream : Yes
Defeat audio cache : Yes
Make use of C2 pointers : No
Read offset correction : 102
Overread into Lead-In and Lead-Out : No
Fill up missing offset samples with silence : Yes
Delete leading and trailing silent blocks : No
Null samples used in CRC calculations : Yes
Used interface : Native Win32 interface for Win NT & 2000
Gap handling : Appended to previous track
Used output format : User Defined Encoder
Selected bitrate : 768 kBit/s
Quality : High
Add ID3 tag : No
Command line compressor : D:\Program Files\Exact Audio Copy\FLAC\FLAC.EXE
Additional command line options : -8 -V -T "ARTIST=%a" -T "TITLE=%t" -T "ALBUM=%g" -T "DATE=%y" -T "TRACKNUMBER=%n" -T "GENRE=%m" -T "COMMENT=Encoded by EAC 0.99pb5 FLAC -8" %s
TOC of the extracted CD
Track | Start | Length | Start sector | End sector
---------------------------------------------------------
1 | 0:00.00 | 2:23.40 | 0 | 10764
2 | 2:23.40 | 2:14.13 | 10765 | 20827
3 | 4:37.53 | 4:51.17 | 20828 | 42669
4 | 9:28.70 | 4:16.03 | 42670 | 61872
5 | 13:44.73 | 3:35.14 | 61873 | 78011
6 | 17:20.12 | 3:43.10 | 78012 | 94746
7 | 21:03.22 | 2:43.36 | 94747 | 107007
8 | 23:46.58 | 3:13.51 | 107008 | 121533
9 | 27:00.34 | 7:26.58 | 121534 | 155041
10 | 34:27.17 | 2:09.08 | 155042 | 164724
11 | 36:36.25 | 4:58.22 | 164725 | 187096
12 | 41:34.47 | 4:20.46 | 187097 | 206642
13 | 45:55.18 | 4:19.55 | 206643 | 226122
14 | 50:14.73 | 4:20.51 | 226123 | 245673
15 | 54:35.49 | 5:09.27 | 245674 | 268875
16 | 59:45.01 | 2:48.49 | 268876 | 281524
Track 1
Filename D:\MUSIC\George Winston\Love Will Come - The Music of Vince Guaraldi Vol 2\01. Time for Love.wav
Pre-gap length 0:00:02.00
Peak level 94.7 %
Track quality 100.0 %
Test CRC BFF5DDA7
Copy CRC BFF5DDA7
Accurately ripped (confidence 3) [7A83866A]
Copy OK
Track 2
Filename D:\MUSIC\George Winston\Love Will Come - The Music of Vince Guaraldi Vol 2\02. It Was a Short Summer, Charlie Brown.wav
Peak level 94.7 %
Track quality 100.0 %
Test CRC 6258ED87
Copy CRC 6258ED87
Accurately ripped (confidence 3) [31E67CB6]
Copy OK
Track 3
Filename D:\MUSIC\George Winston\Love Will Come - The Music of Vince Guaraldi Vol 2\03. Macedonia£¯Little David.wav
Pre-gap length 0:00:03.72
Peak level 81.3 %
Track quality 99.9 %
Test CRC 64C49EDA
Copy CRC 64C49EDA
Accurately ripped (confidence 3) [9DFF5B76]
Copy OK
Track 4
Filename D:\MUSIC\George Winston\Love Will Come - The Music of Vince Guaraldi Vol 2\04. Woodstock.wav
Pre-gap length 0:00:02.22
Peak level 95.4 %
Track quality 99.9 %
Test CRC EE3990D2
Copy CRC EE3990D2
Accurately ripped (confidence 3) [9640F37A]
Copy OK
Track 5
Filename D:\MUSIC\George Winston\Love Will Come - The Music of Vince Guaraldi Vol 2\05. Fenwyck's Farfel£¯Calling Dr. Funk.wav
Pre-gap length 0:00:04.20
Peak level 81.7 %
Track quality 99.9 %
Test CRC 6840CAB8
Copy CRC 6840CAB8
Accurately ripped (confidence 3) [B05D5981]
Copy OK
Track 6
Filename D:\MUSIC\George Winston\Love Will Come - The Music of Vince Guaraldi Vol 2\06. Room at the Bottom.wav
Pre-gap length 0:00:01.70
Peak level 78.9 %
Track quality 99.9 %
Test CRC 5C156BE3
Copy CRC 5C156BE3
Accurately ripped (confidence 3) [921A06DA]
Copy OK
Track 7
Filename D:\MUSIC\George Winston\Love Will Come - The Music of Vince Guaraldi Vol 2\07. Air Music.wav
Pre-gap length 0:00:02.62
Peak level 94.9 %
Track quality 100.0 %
Test CRC 2D68186A
Copy CRC 2D68186A
Accurately ripped (confidence 3) [A5FBB799]
Copy OK
Track 8
Filename D:\MUSIC\George Winston\Love Will Come - The Music of Vince Guaraldi Vol 2\08. Be My Valentine, Charlie Brown.wav
Pre-gap length 0:00:04.13
Peak level 92.0 %
Track quality 100.0 %
Test CRC CF19BDB6
Copy CRC CF19BDB6
Accurately ripped (confidence 3) [997B6B8E]
Copy OK
Track 9
Filename D:\MUSIC\George Winston\Love Will Come - The Music of Vince Guaraldi Vol 2\09. You're Elected, Charlie Brown£¯Little Birdie.wav
Pre-gap length 0:00:00.47
Peak level 94.8 %
Track quality 100.0 %
Test CRC 40A0F34A
Copy CRC 40A0F34A
Accurately ripped (confidence 3) [B310FE30]
Copy OK
Track 10
Filename D:\MUSIC\George Winston\Love Will Come - The Music of Vince Guaraldi Vol 2\10. Brasilia.wav
Pre-gap length 0:00:02.64
Peak level 90.4 %
Track quality 100.0 %
Test CRC C37D9437
Copy CRC C37D9437
Accurately ripped (confidence 3) [2C24D6AC]
Copy OK
Track 11
Filename D:\MUSIC\George Winston\Love Will Come - The Music of Vince Guaraldi Vol 2\11. Jambo's (Casaba).wav
Pre-gap length 0:00:05.24
Peak level 95.2 %
Track quality 100.0 %
Test CRC ED3A12F5
Copy CRC ED3A12F5
Accurately ripped (confidence 3) [395437D5]
Copy OK
Track 12
Filename D:\MUSIC\George Winston\Love Will Come - The Music of Vince Guaraldi Vol 2\12. Pebble Beach£¯Dolores Park.wav
Pre-gap length 0:00:04.36
Peak level 95.0 %
Track quality 100.0 %
Test CRC 5354C92B
Copy CRC 5354C92B
Accurately ripped (confidence 3) [15704447]
Copy OK
Track 13
Filename D:\MUSIC\George Winston\Love Will Come - The Music of Vince Guaraldi Vol 2\13. Love Will Come£¯Slow Dance.wav
Pre-gap length 0:00:01.71
Peak level 88.5 %
Track quality 100.0 %
Test CRC CAECCF0F
Copy CRC CAECCF0F
Accurately ripped (confidence 3) [0921E0AF]
Copy OK
Track 14
Filename D:\MUSIC\George Winston\Love Will Come - The Music of Vince Guaraldi Vol 2\14. Rain, Rain, Go Away.wav
Pre-gap length 0:00:02.31
Peak level 89.7 %
Track quality 99.9 %
Test CRC A0A093E8
Copy CRC A0A093E8
Accurately ripped (confidence 3) [CFA7DBAC]
Copy OK
Track 15
Filename D:\MUSIC\George Winston\Love Will Come - The Music of Vince Guaraldi Vol 2\15. Nobody Else.wav
Pre-gap length 0:00:01.12
Peak level 95.3 %
Track quality 100.0 %
Test CRC 83A8FA7B
Copy CRC 83A8FA7B
Accurately ripped (confidence 3) [E4082C09]
Copy OK
Track 16
Filename D:\MUSIC\George Winston\Love Will Come - The Music of Vince Guaraldi Vol 2\16. Love Will Come 2.wav
Pre-gap length 0:00:05.19
Peak level 85.0 %
Track quality 100.0 %
Test CRC DE7FD4FE
Copy CRC DE7FD4FE
Accurately ripped (confidence 3) [E782DDC5]
Copy OK
All tracks accurately ripped
No errors occurred
End of status report
CUE
REM GENRE "New Age"
REM DATE 2010
REM DISCID EC0EA910
REM COMMENT "ExactAudioCopy v0.99pb5"
PERFORMER "George Winston"
TITLE "Love Will Come - The Music of Vince Guaraldi Vol 2"
FILE "George Winston\Love Will Come - The Music of Vince Guaraldi Vol 2\01. Time for Love.wav" WAVE
TRACK 01 AUDIO
TITLE "Time for Love"
PERFORMER "George Winston"
INDEX 01 00:00:00
FILE "George Winston\Love Will Come - The Music of Vince Guaraldi Vol 2\02. It Was a Short Summer, Charlie Brown.wav" WAVE
TRACK 02 AUDIO
TITLE "It Was a Short Summer, Charlie Brown"
PERFORMER "George Winston"
INDEX 01 00:00:00
TRACK 03 AUDIO
TITLE "MacedoniaЈЇLittle David"
PERFORMER "George Winston"
INDEX 00 02:10:16
FILE "George Winston\Love Will Come - The Music of Vince Guaraldi Vol 2\03. MacedoniaЈЇLittle David.wav" WAVE
INDEX 01 00:00:00
TRACK 04 AUDIO
TITLE "Woodstock"
PERFORMER "George Winston"
INDEX 00 04:48:70
FILE "George Winston\Love Will Come - The Music of Vince Guaraldi Vol 2\04. Woodstock.wav" WAVE
INDEX 01 00:00:00
TRACK 05 AUDIO
TITLE "Fenwyck's FarfelЈЇCalling Dr. Funk"
PERFORMER "George Winston"
INDEX 00 04:11:58
FILE "George Winston\Love Will Come - The Music of Vince Guaraldi Vol 2\05. Fenwyck's FarfelЈЇCalling Dr. Funk.wav" WAVE
INDEX 01 00:00:00
TRACK 06 AUDIO
TITLE "Room at the Bottom"
PERFORMER "George Winston"
INDEX 00 03:33:19
FILE "George Winston\Love Will Come - The Music of Vince Guaraldi Vol 2\06. Room at the Bottom.wav" WAVE
INDEX 01 00:00:00
TRACK 07 AUDIO
TITLE "Air Music"
PERFORMER "George Winston"
INDEX 00 03:40:23
FILE "George Winston\Love Will Come - The Music of Vince Guaraldi Vol 2\07. Air Music.wav" WAVE
INDEX 01 00:00:00
TRACK 08 AUDIO
TITLE "Be My Valentine, Charlie Brown"
PERFORMER "George Winston"
INDEX 00 02:39:23
FILE "George Winston\Love Will Come - The Music of Vince Guaraldi Vol 2\08. Be My Valentine, Charlie Brown.wav" WAVE
INDEX 01 00:00:00
TRACK 09 AUDIO
TITLE "You're Elected, Charlie BrownЈЇLittle Birdie"
PERFORMER "George Winston"
INDEX 00 03:13:04
FILE "George Winston\Love Will Come - The Music of Vince Guaraldi Vol 2\09. You're Elected, Charlie BrownЈЇLittle Birdie.wav" WAVE
INDEX 01 00:00:00
TRACK 10 AUDIO
TITLE "Brasilia"
PERFORMER "George Winston"
INDEX 00 07:23:69
FILE "George Winston\Love Will Come - The Music of Vince Guaraldi Vol 2\10. Brasilia.wav" WAVE
INDEX 01 00:00:00
TRACK 11 AUDIO
TITLE "Jambo's (Casaba)"
PERFORMER "George Winston"
INDEX 00 02:03:59
FILE "George Winston\Love Will Come - The Music of Vince Guaraldi Vol 2\11. Jambo's (Casaba).wav" WAVE
INDEX 01 00:00:00
TRACK 12 AUDIO
TITLE "Pebble BeachЈЇDolores Park"
PERFORMER "George Winston"
INDEX 00 04:53:61
FILE "George Winston\Love Will Come - The Music of Vince Guaraldi Vol 2\12. Pebble BeachЈЇDolores Park.wav" WAVE
INDEX 01 00:00:00
TRACK 13 AUDIO
TITLE "Love Will ComeЈЇSlow Dance"
PERFORMER "George Winston"
INDEX 00 04:18:50
FILE "George Winston\Love Will Come - The Music of Vince Guaraldi Vol 2\13. Love Will ComeЈЇSlow Dance.wav" WAVE
INDEX 01 00:00:00
TRACK 14 AUDIO
TITLE "Rain, Rain, Go Away"
PERFORMER "George Winston"
INDEX 00 04:17:24
FILE "George Winston\Love Will Come - The Music of Vince Guaraldi Vol 2\14. Rain, Rain, Go Away.wav" WAVE
INDEX 01 00:00:00
TRACK 15 AUDIO
TITLE "Nobody Else"
PERFORMER "George Winston"
INDEX 00 04:19:39
FILE "George Winston\Love Will Come - The Music of Vince Guaraldi Vol 2\15. Nobody Else.wav" WAVE
INDEX 01 00:00:00
TRACK 16 AUDIO
TITLE "Love Will Come 2"
PERFORMER "George Winston"
INDEX 00 05:04:08
FILE "George Winston\Love Will Come - The Music of Vince Guaraldi Vol 2\16. Love Will Come 2.wav" WAVE
INDEX 01 00:00:00
Download
Для скачивания .torrent файлов необходима регистрация
Сайт не распространяет и не хранит электронные версии произведений, а лишь предоставляет доступ к создаваемому пользователями каталогу ссылок на торрент-файлы, которые содержат только списки хеш-сумм
[Профиль]  [ЛС] 

ivantachaev

VIP (Заслуженный)

Стаж: 11 лет 9 месяцев

Сообщений: 1982

ivantachaev · 14-Июн-10 01:36 (спустя 4 часа, ред. 14-Июн-10 01:36)

[Цитировать] 

ompj
Вы должны указать источник рипа, разместить под спойлером текст cue-файла и увеличить обложку в пределах от 200*200 до 500*500 пикселей. Превью размещать не нужно.
You should specify source of the rip, place under the spoiler text of the cue file and enlarge the cover of the album - up to resolution from 200*200 to 500*500 pixels. And you don't need to place preview of the cover.
[Профиль]  [ЛС] 
 
Ответить
Loading...
Error