(New Age / Solo Piano) George Winston - Plains (Solo Piano) - 1999, FLAC (tracks+.cue), lossless

Страницы:  1

Ответить
Автор
Сообщение

Bretzl

Стаж: 9 лет 9 месяцев

Сообщений: 60

Bretzl · 19-Окт-08 14:01 (9 лет 9 месяцев назад, ред. 08-Фев-09 21:50)

George Winston - Plains (Solo Piano)
Жанр: New Age / Solo Piano
Год выпуска диска: 1999
Аудио кодек: FLAC
Тип рипа: tracks+.cue
Битрейт аудио: lossless
Продолжительность: 1:07'53"
Трэклист:
01. Dubuque 02:28
02. Before Barbed Wire 04:20
03. Frangenti 03:54
04. Give Me Your Hand / La Valse ... 02:44
05. No Ke Ano Ahiahi 05:14
06. Graduation 01:48
07. Teach Me Tonight 04:16
08. Rainsong (Fortune's Lullaby) 04:44
09. Merry Go Round 03:29
10. The Dance 04:51
11. Cloudburst 03:11
12. The Swan 06:17
13. 'Ike Ia Ladana (Queen's Jubilee) 06:43
14. Plains (Eastern Montana Blues) 03:52
15. Angel 06:37
16. Waltz for the Lonely 03:17
Доп. информация
George Winston - Piano.
PLAINS
George Winston returns with PLAINS, his first studio album featuring newly recorded compositions in over 5 years. PLAINS captures the beauty and wilderness of George's home state, Montana. It features 16 new tracks, including George's rendition of Garth Brooks' hit The Dance, Sarah McLachlan's Angel and Dubuque.
This album is inspired by the plains and its people. The four seasons there have always been my deepest source of inspiration. George Winston.
EAC Log
Exact Audio Copy V0.99 prebeta 3 from 28. July 2007
EAC extraction logfile from 19. October 2008, 9:24
George Winston / Plains (Solo Piano)
Used drive : PLEXTOR CD-R PX-W4012A Adapter: 1 ID: 0
Read mode : Secure
Utilize accurate stream : Yes
Defeat audio cache : Yes
Make use of C2 pointers : No
Read offset correction : 98
Overread into Lead-In and Lead-Out : No
Fill up missing offset samples with silence : Yes
Delete leading and trailing silent blocks : No
Null samples used in CRC calculations : Yes
Used interface : Native Win32 interface for Win NT & 2000
Gap handling : Not detected, thus appended to previous track
Used output format : User Defined Encoder
Selected bitrate : 1024 kBit/s
Quality : High
Add ID3 tag : No
Command line compressor : C:\Flac\flac.exe
Additional command line options : -8 -V -T "ARTIST=%a" -T "TITLE=%t" -T "ALBUM=%g" -T "DATE=%y" -T "TRACKNUMBER=%n" -T "TOTALTRACKS=%x" -T "GENRE=%m" -T "COMMENT=%e" %s -o %d
TOC of the extracted CD
Track | Start | Length | Start sector | End sector
---------------------------------------------------------
1 | 0:00.00 | 2:28.17 | 0 | 11116
2 | 2:28.17 | 4:20.35 | 11117 | 30651
3 | 6:48.52 | 3:54.48 | 30652 | 48249
4 | 10:43.25 | 2:44.35 | 48250 | 60584
5 | 13:27.60 | 5:14.72 | 60585 | 84206
6 | 18:42.57 | 1:48.55 | 84207 | 92361
7 | 20:31.37 | 4:16.23 | 92362 | 111584
8 | 24:47.60 | 4:44.50 | 111585 | 132934
9 | 29:32.35 | 3:29.62 | 132935 | 148671
10 | 33:02.22 | 4:51.73 | 148672 | 170569
11 | 37:54.20 | 3:11.30 | 170570 | 184924
12 | 41:05.50 | 6:17.22 | 184925 | 213221
13 | 47:22.72 | 6:43.58 | 213222 | 243504
14 | 54:06.55 | 3:52.65 | 243505 | 260969
15 | 57:59.45 | 6:37.07 | 260970 | 290751
16 | 64:36.52 | 3:17.10 | 290752 | 305536
Track 1
Filename D:\Music\George Winston\[1999] Plains (Solo Piano)\01 - Dubuque.wav
Peak level 98.9 %
Track quality 100.0 %
Test CRC CC08F915
Copy CRC CC08F915
Accurately ripped (confidence 2) [017761D4]
Copy OK
Track 2
Filename D:\Music\George Winston\[1999] Plains (Solo Piano)\02 - Before Barbed Wire.wav
Peak level 98.9 %
Track quality 100.0 %
Test CRC 4C080447
Copy CRC 4C080447
Accurately ripped (confidence 2) [6475071F]
Copy OK
Track 3
Filename D:\Music\George Winston\[1999] Plains (Solo Piano)\03 - Frangenti.wav
Peak level 98.8 %
Track quality 100.0 %
Test CRC 59225C44
Copy CRC 59225C44
Accurately ripped (confidence 2) [FC6A6A6B]
Copy OK
Track 4
Filename D:\Music\George Winston\[1999] Plains (Solo Piano)\04 - Give Me Your Hand , La Valse ....wav
Peak level 98.8 %
Track quality 100.0 %
Test CRC 1BE05E01
Copy CRC 1BE05E01
Accurately ripped (confidence 2) [DE05ED4D]
Copy OK
Track 5
Filename D:\Music\George Winston\[1999] Plains (Solo Piano)\05 - No Ke Ano Ahiahi.wav
Peak level 98.9 %
Track quality 100.0 %
Test CRC 64A68700
Copy CRC 64A68700
Accurately ripped (confidence 2) [B71B059A]
Copy OK
Track 6
Filename D:\Music\George Winston\[1999] Plains (Solo Piano)\06 - Graduation.wav
Peak level 98.9 %
Track quality 100.0 %
Test CRC 154E5ACF
Copy CRC 154E5ACF
Accurately ripped (confidence 2) [BC37BCBD]
Copy OK
Track 7
Filename D:\Music\George Winston\[1999] Plains (Solo Piano)\07 - Teach Me Tonight.wav
Peak level 98.9 %
Track quality 100.0 %
Test CRC 848E24EE
Copy CRC 848E24EE
Accurately ripped (confidence 2) [C13D1C3F]
Copy OK
Track 8
Filename D:\Music\George Winston\[1999] Plains (Solo Piano)\08 - Rainsong (Fortune's Lullaby).wav
Peak level 98.8 %
Track quality 100.0 %
Test CRC 72EA4CB0
Copy CRC 72EA4CB0
Accurately ripped (confidence 2) [50566517]
Copy OK
Track 9
Filename D:\Music\George Winston\[1999] Plains (Solo Piano)\09 - Merry Go Round.wav
Peak level 98.9 %
Track quality 99.9 %
Test CRC B74DF6C6
Copy CRC B74DF6C6
Accurately ripped (confidence 2) [5FB46699]
Copy OK
Track 10
Filename D:\Music\George Winston\[1999] Plains (Solo Piano)\10 - The Dance.wav
Peak level 98.9 %
Track quality 100.0 %
Test CRC B0B0E9C2
Copy CRC B0B0E9C2
Accurately ripped (confidence 2) [CF86468A]
Copy OK
Track 11
Filename D:\Music\George Winston\[1999] Plains (Solo Piano)\11 - Cloudburst.wav
Peak level 98.9 %
Track quality 100.0 %
Test CRC 4A70BDD4
Copy CRC 4A70BDD4
Accurately ripped (confidence 2) [D5795C7C]
Copy OK
Track 12
Filename D:\Music\George Winston\[1999] Plains (Solo Piano)\12 - The Swan.wav
Peak level 98.9 %
Track quality 100.0 %
Test CRC A1126CE2
Copy CRC A1126CE2
Accurately ripped (confidence 2) [F3E9B245]
Copy OK
Track 13
Filename D:\Music\George Winston\[1999] Plains (Solo Piano)\13 - 'Ike Ia Ladana (Queen's Jubilee).wav
Peak level 98.9 %
Track quality 99.9 %
Test CRC D5C82974
Copy CRC D5C82974
Accurately ripped (confidence 2) [E747A83A]
Copy OK
Track 14
Filename D:\Music\George Winston\[1999] Plains (Solo Piano)\14 - Plains (Eastern Montana Blues).wav
Peak level 98.9 %
Track quality 100.0 %
Test CRC E5126831
Copy CRC E5126831
Accurately ripped (confidence 2) [A958F766]
Copy OK
Track 15
Filename D:\Music\George Winston\[1999] Plains (Solo Piano)\15 - Angel.wav
Peak level 98.8 %
Track quality 100.0 %
Test CRC 4175437D
Copy CRC 4175437D
Accurately ripped (confidence 2) [BBBF798E]
Copy OK
Track 16
Filename D:\Music\George Winston\[1999] Plains (Solo Piano)\16 - Waltz for the Lonely.wav
Peak level 98.8 %
Track quality 100.0 %
Test CRC 7B688904
Copy CRC 7B688904
Accurately ripped (confidence 2) [7E05420E]
Copy OK
All tracks accurately ripped
No errors occurred
End of status report
CUE (FLAC tracks)
REM GENRE "New Age"
REM DATE 1999
REM DISCID EE0FE910
REM COMMENT "ExactAudioCopy v0.99pb3"
PERFORMER "George Winston"
TITLE "Plains (Solo Piano)"
FILE "01 - Dubuque.flac" WAVE
TRACK 01 AUDIO
TITLE "Dubuque"
PERFORMER "George Winston"
INDEX 01 00:00:00
FILE "02 - Before Barbed Wire.flac" WAVE
TRACK 02 AUDIO
TITLE "Before Barbed Wire"
PERFORMER "George Winston"
INDEX 01 00:00:00
FILE "03 - Frangenti.flac" WAVE
TRACK 03 AUDIO
TITLE "Frangenti"
PERFORMER "George Winston"
INDEX 01 00:00:00
FILE "04 - Give Me Your Hand , La Valse ....flac" WAVE
TRACK 04 AUDIO
TITLE "Give Me Your Hand / La Valse ..."
PERFORMER "George Winston"
INDEX 01 00:00:00
FILE "05 - No Ke Ano Ahiahi.flac" WAVE
TRACK 05 AUDIO
TITLE "No Ke Ano Ahiahi"
PERFORMER "George Winston"
INDEX 01 00:00:00
FILE "06 - Graduation.flac" WAVE
TRACK 06 AUDIO
TITLE "Graduation"
PERFORMER "George Winston"
INDEX 01 00:00:00
FILE "07 - Teach Me Tonight.flac" WAVE
TRACK 07 AUDIO
TITLE "Teach Me Tonight"
PERFORMER "George Winston"
INDEX 01 00:00:00
FILE "08 - Rainsong (Fortune's Lullaby).flac" WAVE
TRACK 08 AUDIO
TITLE "Rainsong (Fortune's Lullaby)"
PERFORMER "George Winston"
INDEX 01 00:00:00
FILE "09 - Merry Go Round.flac" WAVE
TRACK 09 AUDIO
TITLE "Merry Go Round"
PERFORMER "George Winston"
INDEX 01 00:00:00
FILE "10 - The Dance.flac" WAVE
TRACK 10 AUDIO
TITLE "The Dance"
PERFORMER "George Winston"
INDEX 01 00:00:00
FILE "11 - Cloudburst.flac" WAVE
TRACK 11 AUDIO
TITLE "Cloudburst"
PERFORMER "George Winston"
INDEX 01 00:00:00
FILE "12 - The Swan.flac" WAVE
TRACK 12 AUDIO
TITLE "The Swan"
PERFORMER "George Winston"
INDEX 01 00:00:00
FILE "13 - 'Ike Ia Ladana (Queen's Jubilee).flac" WAVE
TRACK 13 AUDIO
TITLE "'Ike Ia Ladana (Queen's Jubilee)"
PERFORMER "George Winston"
INDEX 01 00:00:00
FILE "14 - Plains (Eastern Montana Blues).flac" WAVE
TRACK 14 AUDIO
TITLE "Plains (Eastern Montana Blues)"
PERFORMER "George Winston"
INDEX 01 00:00:00
FILE "15 - Angel.flac" WAVE
TRACK 15 AUDIO
TITLE "Angel"
PERFORMER "George Winston"
INDEX 01 00:00:00
FILE "16 - Waltz for the Lonely.flac" WAVE
TRACK 16 AUDIO
TITLE "Waltz for the Lonely"
PERFORMER "George Winston"
INDEX 01 00:00:00
другие диски:
1982 - George Winston - December
1982 - George Winston - Winter Into Spring
1991 - George Winston - Summer
1994 - George Winston - Forest (Solo Piano)
1996 - George Winston - Linus & Lucy, The Music Of Vince Guaraldi
Download
Для скачивания .torrent файлов необходима регистрация
Сайт не распространяет и не хранит электронные версии произведений, а лишь предоставляет доступ к создаваемому пользователями каталогу ссылок на торрент-файлы, которые содержат только списки хеш-сумм
[Профиль]  [ЛС] 

DrStandBy

Lossless Group VIP

Стаж: 11 лет 9 месяцев

Сообщений: 15226

DrStandBy · 19-Окт-08 16:50 (спустя 2 часа 48 мин.)

[Цитировать] 

Bretzl
Not detected, thus appended to previous track это не есть гуд, перед рипом F4 нажимать и определять прегапы НАДО!
[Профиль]  [ЛС] 

Zimagor

Стаж: 11 лет 9 месяцев

Сообщений: 1335

Zimagor · 19-Окт-08 20:22 (спустя 3 часа, ред. 19-Окт-08 20:22)

[Цитировать] 

Bretzl
Хочется скачать, правильный рип.
Диск в наличии? Есть возможность переснять рип с правильными прегапами?
[Профиль]  [ЛС] 

arhad

Top Seed 02* 80r

Стаж: 11 лет 6 месяцев

Сообщений: 324

arhad · 31-Окт-08 00:36 (спустя 11 дней)

[Цитировать] 

Благодарю за раздачу! Я ожидал все-таки более насыщенную музыку, как, например, [url="Rick Erlien - The Music of Yosemite"]http://rutracker.org/forum/viewtopic.php?t=1177788[/url].
[Профиль]  [ЛС] 
 
Ответить
Loading...
Error